&title=chronomia
&artist=Lime
&first=0
&des=seisan
&lv_5=14+
&inote_5=(227)
{1},4w8[8:10],,
{8}1>8[4:13]`8,,,,,,,,8,,,,,,,,1,,,,,,,,2,,,,,,,,
{8}3h[8:3]`6,,,,,,,,4h[8:3]`7,,,,,,,,5h[8:3]`8>7[8:12],,,,,,,,
{8}1,,2,,3,,4-8[8:1],,4b/2b<3[8:4],,,,,,,,7h[8:2],,5,8h[8:2],,4,1-5[8:1],,
{8}1b/3b,2-6[8:1],,3b,3-7[8:1],,1b<2[8:5],,,,,,,,8,7,
{8}6h[8:3]/1,,,5h[8:3],,,4,,3h[8:3]`8,,,4h[8:3],,,5<3[8:5],,6h[8:4],,,,,,
{8}8V64[4:3],8V24[8:5],,,,,,,,,
{8}3h[16:4]/5h[8:2],,,2h[16:4]/8h[8:2],,,6h[16:4]/4h[8:2],,,3h[16:6]/1h[8:2],,,
{16}1,8,7,6,4,3,2,1,
{8}8>5[8:6]/6,,6,,7,,7,,8,,8,,8/5h[8:2],,8,,8/3h[8:2],,8,2h[8:2],8,,8/1,,
{8}7,8,6,1,5,2-4[8:1],4,2,
{8}1h[8:2],,4,8h[8:2],4,,4/7h[8:2],,3,,6/3,,2/5,6,4/7-4[8:1],,7`8h[8:2],,,1h[8:2],
{8}5,,2h[8:4]/6,,6,,7,7b<4[8:1],,,{16}8,7,6,5,
{8}8b/4b,3,1,2,6,8,7,8,5,2,4,3,6h[48:1]/4,5,7,6,5/2,3,4,5/2,3,4,5/1,2,5-3[8:1],6,
{8}5-7[8:1],,5-1[8:1],,8h[40:1],7,2/6h[8:1],,7/4,3,6,5,8-4[8:1]/4,,
{8}2-6[8:1]/8,,2/8,,1/5,8/4,7<5[8:1]/3,,{32}1,2,3,,,,,,{8},4h[8:2]/6h[8:2],,,3/5,3/5,
{16}5/3,6,7,8,2,3,4,5,7,8,1,2,3,4,5,6,
{16}7/3,,3,,2,1,2,,3/6,,2,1,2,,3/5,,2,1,2,,8,7,1,2,7,6,2,3,6,5,3,4,5h[8:2]/7,,,,
{32}3,2,1,8,7b/6b[8:1],,,,,,,,{8}1b/8b,,3b/2b,,4/5,4/5,5h[8:2]/4,,
{16}4,5,3,6,4,5,2,3,4,5,8,7,6,5,4/3,,2,,1/7,,8-3[8:1]/6,,,,6-1[8:1],,,,
{16}2,3,4,5,6,7,8/4,,,,
{8}5/6,8w4[8:1]/3,,8b,,,4/3,1>4[8:1]/6,,1,{16}7,8,1,2,3,4,5,6,4,3,2,1,
{8}8/7,5w1[8:1]/2,,5b,,,1/2,4w8[8:1]/7,,4b,,,{16}1,2,8,7,2,3,7,6,
{8}4>8[4:1],,8<4[4:1],,4>8[4:1],,8,,7<3[4:1],,3>7[4:1],,7<3[4:1],,3>5[16:6],,
{8}8h[8:2],,,,2h[8:2],4,6h[8:2],8,3h[8:4],1,1,1,8h[8:2],5,4h[8:2],1,7h[8:4],6,6,
{8}5s1[8:7],5z1[8:6],,,,,,,,,,3/7,,1>3[8:1],4,1,8<6[8:1],5,8,4>2[8:1],5,4,7,1,
{16}1/8,7/2,6/3,,3b/6h[8:2],,,,1,,{32}1,8,7,6,5,4,3,2,
{8}1h[8:2]/7h[8:2],,,8h[8:2]/2h[8:2],,,3h[8:2]/4h[8:2],,,4h[8:2]/6h[8:2],,,,,
{16}5,5,5,,
{8}4h[8:2]/6h[8:2],,,5h[8:2]/3h[8:2],,,2h[8:2]/1h[8:2],,,1h[8:2]/7h[8:2],,,,8,
{8}8b>8[8:8],,,,,,,,8>7[8:8],,,,,,,,7>6[8:12],,,,,,,,,,,,,,,,
{4}7h,,,,8h`3h,,,,1h`3h,,,,,,4w8[8:1],,
{16}6b/2b,3,4,5,1,8,7,6,5-1[8:1],,3,,5,,,,
{16}4,3,2,1,5,,5,6,7,8,4,,4,3,2,1,8/4,7,6,5,4/8,3,2,1,8/4,,,,
{8}1<6[8:1]/5,,2/1>4[8:1],,1,,{16}1,8,7,6,1,2,3,4,
{16}7,6,5,4,8,1,2,3,4-8[8:1],,6,,4,,,,
{16}5,6,7,8,4,,4,3,2,1,6,,6,7,8,1,2/6,3,4,5,6/2,7,8,1,2/6,,,,
{8}8>3[8:1]/4,,7/8<5[8:1],,8,,{16}8,1,2,3,8,7,6,5,
{16}2b/4b,,3,4,2,,2,,{8}8,1/7,2/6,,{16}7/5,,6,5,7,,7,,{8}1,8/2,7/3,,
{32}8h[8:1]/7,6,5,4,,,,,,,,1h[8:1]/2,3,4,5,,,,,,,,
{32}8bz4[2:1]/1b,7/2-6[32:15],6/3,5/4,,,,,,,
{8},,,,,,3,4,2/5,{16}1,8,1,,6/4,,3-8[8:1],,4,,3,,,,
{8}6/1,{16}5,4,5,,2/8,,7-4[8:1],,8,,7,,,,
{8}2>6[8:2],,6<2[8:2],,2>6[8:2],,6<2[8:4],6>2[8:3],,,,,,,7,8,
{8}1/6,1/6,3,5,4,4,3/7,8,1/2,1/2,3,6,4,4,3/7<4[8:1],,7/8,1q5[8:1],2,7,6<1[8:1],3,
{8}2>5[8:1],,2,8p4[8:1],7,2,3>8[8:1],5,3,,
{8}2/6,2/6,1-4[8:1],8-5[8:1],1,8,2,8,1/3,1/3,4-1[8:1],5-8[8:1],4,5,3,7,
{8}1b/2b,4b/7b,,4b/5b,1b/7b,,5b/6b,1b/8b,2/6,3/7,1b/8b,3/4,1/5,3/7,1b/2b,3b/5b,
{8}7b/1b,,,,,,3-6[227:1],,,,,,,,8-4[8:1],,
{8}8b>8[8:56],,,,,,,,,,,,,,,,,,,,,,,,,,,,,,,,,,,,,,,,,,,,,,,,,,,,,,,,,,,,,,,,
{8}2h[8:3]/7,,4,,5/3,,6,5,7h[8:1]/4,4,6,6,5/3,,4,5,2h[8:3]/6,,4,,5/3,,6,5,
{8}7h[8:1]/4,4,6,6,5/3,,4,6,
{16}3/7,,2,1,2,,8,,1,,1,,7,,7,,6/2,,7,8,7,,2,,8,,8,,
{16}1w5[8:1],,1,,1b,,,,,,,,,,,,,,,,,,,,,,,,
{8},,,,
{16}7b/1b,,3,4,2-4[8:1],,6,,2-6[8:1],,7,,2,,8,,
{16}1/5,4,3,2,5,6,7,8,2-6[8:1],,1-5[8:1],,2,,1,,
{16}4,3,2,1,6,5,4,3,2/6,1/5,8/4,7/3,6/2,,,,
{16}7,6,5,4,2,1,8,7,2/6,1/5,8/4,7/3,6/2,,,,
{8}8-4[8:1]/3,3,8-6[8:1],2,8-4[8:1],3,8<6[8:1],1,8,3,2>4[8:1],5,7p3[8:1],8,2,1,
{16}2/5,,3,4,3,,7/4,,6,5,6,,{8}4/8<5[8:1],,8>3[8:1],,8w4[8:1],,8,,2/6,4/5,
{16}2b/8b,,6,5,7-5[8:1],,3,,7-3[8:1],,2,,7,,1,,
{16}8/4,5,6,7,4,3,2,1,7-3[8:1],,8-4[8:1],,7,,8,,
{16}5,6,7,8,3,4,5,6,7/3,8/4,1/5,2/6,3/7,,,,
{16}2,3,4,5,7,8,1,2,7/3,8/4,1/5,2/6,3/7,,,,
{16}1b/5b,,8,7,8,,2b/6b,,5,4,5,,3b/7b,,2,,
{16}1b-5[8:1]/7b,,,,1b/6b-2[8:1],,,,6b/4b-8[8:1],,,,5bw1[8:4]/4b,,,,,,,,,,,,,,,,,,,,
{12}1h,3h,2h,8h,6h,7h,{8}4b,6bV82[8:2]/2b,,,
{8}3,3V57[16:4],,8,8V24[16:3],,5,5V71[16:3],,2,2V41[16:3],,
{8}2,{32}8,7,6,5,{8},8,8V25[4:1],,6,7V16[4:1],,3,4V63[4:1],,8,7h[8:2],,1,
{8}2/6,2/6,3/7,3/7,4/8,4/8,4V62[8:2]/8,,4/6,8V26[8:2],,4/8,3V51[8:2],,3,
{32}1,8,7,6,{8},3,2/7V51[8:2],,7b/4b,2bV84[8:2],,2b/7b,5bV73[8:2],,
{8}5b/3b,1b,,2b,{32}8b,7,6,5,{8}4/3,2/3,1/2,8/1,7/8h[8:9],,,,,,,,,
{32},1/7,2/6,3/5,4w8[32:116],,,,{4},,,,,,,,,,,,,,,E
