&title=Cat's Meow
&artist=電音部/黒鉄たま/ケンモチヒデフミ
&first=0.01
&des=难道我是一只很坏很坏的小猫咪吗
&des_5=难道我是一只很坏很坏的小猫咪吗
&lv_5=13+
&inote_5=(146){4},,,,5h[2:1],
E2,4h[2:1],B3,
5h[2:1],E2,4h[2:1],B3,
7h[2:1],E2,4h[4:1],B3,
{1}1xq1[2:1]/7xp7[2:1],
{4}5h[4:1],{8}3,6,{4}4h[2:1],B3,
5h[4:1],{8}3,6,{4}4h[2:1],E2,
7h[4:1],{8}3,6,{4}4h[4:1],B3,
{1}4x>8[2:1]/8x<4b[2:1],
{16}2xh[16:3],,,4,{8}3h[8:1],{16}5,4h[8:1],,6,{8}5h[8:1],8,2,
{16}7xh[16:3],,,5,{8}6h[8:1],{16}4,5h[8:1],,3,{8}4h[8:1],8,6,
{16}2xh[16:3],,,4,{8}3h[8:1],{16}5,4h[8:1],,6,{8}5h[8:1],1,7,
{16}3x>8[16:3],,,8x<5[16:3],,,{8}4x,,8>3[8:1],2,8x,
{16}5b-7[8:1],,,4,{8}5,3h[8:1],{16}8-5[8:1],,,1,{8}8,3h[8:1],
{16}4x-6[8:1],,,3,{8}4,2h[8:1],{16}7-4[8:1],,,8,{8}7,2h[8:1],
{16}3x<6[8:1],,,2,{8}3,1h[8:1],{16}7p3[8:1],,,8,{8}7,1h[8:1],
5b,{24}2x,3x,4x,{8}1x/5x,{24}8x,7x,6x,{4}1x/5x,{16}1-5b[8:1],5,3,7,
{4}1<6[8:1],{8}4,2x,{16}1-4[8:1],4,1,4,,,,,{4}8x<5[8:1],
{8}3,1x,{16}8-5[8:1],5,8,5,,,,,{4}7x<4[8:1],
{8}2,8x,{16}7-2[8:1],4,7,4,,,,,6x<1[8:1],
,,5,{8}6x,4,{16}2x,8,4,6,1,7,3,5,
{4}8x>3[8:1],{8}7/8,5x,{16}6-3[8:1],4,7,8,{4}6x,
1x>4[8:1],{8}8/1,6x,{16}7-4[8:1],5,8-3[8:1],2,{8}7x,8x,
{4}6xh[16:3],{8}7h[16:1]/5xh[16:1],5h[16:1]/7xh[16:1],{16}2,1,4x,5,{8}8x-3[8:1]*-5[8:1],7/1,
{4}8x,{16}1x,4,3,4,1x>4[8:1],6,5<8[8:1],6,{8}1x,5,
{16}3,3,7,7,{32}2,1,8,7,6,5,4,3,{4}2-6b[8:1],{8}2/6,E8/E1/B1/B7/B8f,
{16}3bh[8:1],,,6,{8}4/6,7/1h[8:1],4,{16}2,6,{8}4/6,7/1h[8:1],
{16}5bh[8:1],,,2,{8}4/2,1/7h[8:1],4,{16}6,2,{8}4/2,1/7h[8:1],
{16}3bh[8:1],,,6,{8}4/6,7/1h[8:1],4,{16}2,6,{8}4/6,7/1h[8:1],
{16}5b,5,3,3,7,7,1,8,{4}2-6[8:1],{8}6/2,E8/E1/B1/B7/B8f,
{4}E5h[4:3],{8},,,,8b,8b,
{16}2x,6,5,7,{8}1x,{16}2x,6,5,7,{8}1x,{16}2x,4,3,5,
1x,7,8,6,{8}2x,{16}1x,7,8,6,1x,4,2x,5,4,7,
{2}1b/Ch[4:1],{16}6-3b[8:1],2,6,2,{4}6b,
{16}5/1-5[32:3],,,1/7-4[32:3],,,{8}7,3,3h[8:1],{4}D1/E1/A8/A1,
{16}2/6>3[32:3],,,6/1-5[32:3],,,{8}1,4,4h[8:1],{4}E1/D1/A8/A1,
{16}6/2-5[32:3],,,2/7-3[32:3],,,{8}7,4,4h[8:1],{4}D1/E1/A8/A1,
{16}2/7-4[32:3],,,7/1,,,{8}2,{16}4<7[8:1],3,,3,{8}4,2,
{4}8xh[8:1]/1x>5qq6[8:5],8h[8:1],7h[8:1],7h[8:1],
5x/6xh[8:1],{8}5/6,8,3/4,1,5/6,8,
{16}3,4,3,4,2,5,2,5,1,6,1,6,8,7,8,7,
{8}1,8bxh[8:1]/3bxh[8:1],{16},1bxh[8:1]/6bxh[8:1],,,{4}5bxh[8:1]/4bxh[8:1],{16}1-5b[8:1],5,3,7,
1b<6[8:1],,,7,{8}1,5,{4}3/4<7[8:1],2-6[8:1],
{16}2/8>3[8:1],,,7,{8}8,6,{4}5/4<1b[16:3],2-6[8:1],
{16}2,,,7,{8}5-8[8:1],4/6,{4}5/1-5[8:1],{8}1-6[8:1]*-4[8:1],7,
{4}1,{8}7h[8:1],{16}5,6,5,6,{8}2h[8:1],{16}4,3,4,3,
{8}7h[8:1],{16}2,2,{8}6,1,4/8h[8:1],{16}5,5,{8}1,6,
3/7h[8:1],{16}2,2,{8}6,1,4/8h[8:1],{16}5,5,{8}1,6,
7/3,2,1/5,6,7/3,2,1/5,6,
{16}7/3,3,5,5,2,2,8,8,{8}3-6[8:1]*<6[8:1],E2/E8,{16},,,,2x,
4,3,5,{8}1x,{16}2x,4,3,5,{8}1x,{16}2x,7,8,6,
2x,6,5,7,{8}1x,{16}2x,6,5,7,{8}1x,{16}2x,4,3,5,
1x,7,8,6,{8}2x,{16}1x,7,8,6,1x,4,2x,5,4,7,
1,1,5,5,4,4,7,7,{8}2-6[8:1],E1/E5,,,{4}7h[4:1],
3h[4:1],{16}5h[16:3],,,E2,,,{8}E8,
3,3,{4}5h[4:1],{16}2h[16:3],,,E8,,,{8}E2,
{4}7h[4:1],5h[4:1],{16}4h[16:3],,,E2,,,{8}E8,
3,3,{4}5h[4:1],{16}2h[16:3],,,E8,,,{8}E2,
{4}7-4[16:3],4-8[16:3],{16}2,,,E2,,,{8}E8,
3<6[16:3],3,{4}6p2[16:3],{16}8,,,E8,,,{8}E2,
{4}7-4[16:3],4-8[16:3],{16}2,,,E2,,,{8}E8,
3,3,{4}6h[4:1],{2}8-6[8:1]*-2[8:1],
{8}B4,B5,B3,{16}B6,B1,,,,,,,,,{8}4h,
5h,3h,{16}6h,1h,,,,,,,,,{8}4x,
5x,3x,{16}6x,1x,,,,,,,,,{8}4,
5,3,{16}6,1-5b[8:1],,,,,{4}7b,
{8}4/8h[8:3],5,3,{16}6,1>4b[8:1],{32},,,,,,,,6bx,7bx,{16}8bx,,,{8}4/8h[8:3],
5,3,{16}6,1>5b[6:1],{32},,,,,,,,6bx,7bx,{16}8bx,,,{8}4/8h[8:3],
5,3,{16}6,1>6b[6:1],{32},,,,,,,,6bx,7bx,{16}8bx,,,{4}4V25[16:5]/8V61[16:5],
,,8bx/4bx,
2/B6,3/B7,4/B8,5/B1,
{8}8/B4,8,7/B3,7,6/B2,6,5/B1,5,
{16}3,4,3,4,2,5,2,5,1,6,1,6,8-3-1-6-2b[4:3],7,8,7,
{1}E5fh[1:1],
{4},E1,{16}6-3b[8:1],2-7[16:1],6,2,{4}6b,
{16}5/1-5[32:3],,,1/7-4[32:3],,,{8}7,3,3h[8:1],{4}2x<7[8:1],
{16}2/6>3[32:3],,,6/1-5[32:3],,,{8}1,4,4h[8:1],{4}6x-1[8:1],
{16}6/2-5[32:3],,,2/7-3[32:3],,,{8}7,4,4h[8:1],{4}2x>5[8:1],
{16}2/8-4[32:3],,,8/1,,,{8}2,{16}4<7[8:1],3,,3,{8}4,2,
{4}8xh[8:1]/1x>5qq6[8:5],8h[8:1],7h[8:1],7h[8:1],
5x/6xh[8:1],{8}5/3,7,5/3,1,5/3,8,
{16}2,4,3,4,1,6,5,6,2,4,3,4,1,6,5,6,
{8}2,7bxh[8:1]/4bxh[8:1],{16},1bxh[8:1]/6bxh[8:1],,,{4}5bxh[8:1]/4bxh[8:1],{16}1-5b[8:1],5,3,7,
1b<3[4:1],,,7,{8}1,4,{4}8>3[8:1],8/2-5[8:1],
{16}2/8>6[4:1],,,6,{8}8,7,{4}1<4b[16:3],2-6[8:1],
{16}2,,,7,{8}5-8[8:1],4/6,{4}5/1-5[8:1],{8}1-6[8:1]*-4[8:1],7,
{4}1,{8}7h[8:1],{16}5,6,5,6,{8}2h[8:1],{16}4,3,4,3,
{8}7-5[8:1],{16}2,2,{8}7,1,4/8-2[8:1],{16}5,5,{8}8,6,
3/7-3[8:1],{16}2,2,{8}7,1,4/8-4[8:1],{16}5,5,{8}8,6,
7/3,2,1/5,6,7/3,2,1/5,6,
{16}7/3,3,5,5,2,2,8,8,4,4,6,6,1,1,7,7,
{32}3,4,5,6,7,8,1,2,3,4,5,6,7,8,1,2,{8}3-6[8:1]*<6[8:1],E8/E2,{16},,,,2x,
4,3,5,{8}1x,{16}2x,4,3,5,{8}1x,{16}2x,7,8,6,
2x,6,5,7,{8}1x,{16}2x,6,5,7,{8}1x,{16}2x,4,3,5,
1x,7,8,6,{8}2x,{16}1x,7,8,6,1x,4,2x,5,4,7,
1,1,5,5,2,2,7,7,{4}4pp5>2[4:1],B5`E6`B6,
{1}8pp5[16:9],
1pp5[16:9],
7pp5[16:9],
7xp7[2:1]`1xq1[2:1],
{2}6h[4:1],{16}4,,,5,,,{8}3,
{2}3h[4:1],{16}6,,,5,,,{8}7,
{2}7h[4:1],{16}4,,,5,,,{8}3,
{2}3h[4:1],{16}6,,,5,,,7h[16:1],C,
E
