&title=Bloody Stream
&artist=Coda
&first=-0.06
&des=ジョセフ・ジョースター
&lv_5=13+
&inote_5=(132.01){8},,,,,,
(132)
{16}2b,5,3,,6,,4,5,,3,,3,7,,4,,
{16}5b,3,4,2,5,,3,6,,4,,5,3,,7,,
{16}4b,6,3,5,1,,7,2,,5,,3,4,,1b-4[8:1]/6b>4[8:1],,
{8},,,,1>5[8:1]/5<1[8:1],,1/5,,
{16}2b/7b,,3,5,4,,36,,2>5[8:1],,4,,26,,,,
{16}7/2,,6,4,5,,63,,7-4[8:1],,5,,73,,,,
{16}1/6,,2,4,3,,25,,1v4[8:1],,6,,1/5<1[8:2],,,,
{4}1>5[8:2],5<1[8:2],1s5[8:2],4,
{16}2,,5,3,8h[16:2],,4,,57,,4,6,2h[16:2],,5,,
{16}1>4[8:1]/4v7[8:1],,,,14,,,,1/6,,2,4,3,,46,,
{4}1>1[8:4]*v3[8:1]/7,,1v6[8:1],3,
{16}7h[16:1]/4,4,,6h[16:1]/3,3,,5h[16:1]/2,2,,4/1,8,7,6,5,4,3,
{16}2b/6b,,3,5,4,,36,,2>5[8:1],7,1,8,2,,,,
{16}8/4,,7,5,6,,53,,7<4[8:1],2,8,1,7,,8,,
{16}1/6,,3,5,4,,26,,1>4[8:1],7,8,6,1<6[8:1],,,,
{4}1>4[8:1]/3,1<6[8:1]/7,5v8[8:1]/1q5[8:1],51,
{8}5/7h[8:3],4,3,2,1h[8:3]/7,6,5,4,
{8}3v6[8:1]/8>3[8:1],,38,,4/7h[8:1],4,3/6h[8:1],3,
{8}26,15,8/4h[8:6],,8,,8,,
{16}8h[384:1],4,2h[384:1],6,4h[384:1],8,5h[384:1],7,
1h[384:1],5,3h[384:1],8,4h[384:1],6,8h[384:1],4,
{4}2b-5[8:2],5q1[8:2],1>4[8:2],4qq4[8:3]*pp4[8:3],
{16},,,,,,,,5h[8:1]/3h[8:1],,,6h[8:1]/2h[8:1],,,71,,
{4}8b-5[8:2]/2,5-2[8:2],2-7[8:2],7-4[8:2],
{4}4p8[8:2],3,2,1/7-5[8:1],
{8}7-1[8:1]/8-4[8:1],,7/8-6[8:1],,8-2[8:1]/1-5[8:1],,8/1V36[8:2]*V74[8:2],,
{16}1,,,,,,5/4,,3h[8:1],,6,,2h[8:1],,8,,
{16}1,7,1,,1,5,1,,1,3,1,,1,1,1,,
{16}7,8,,56,,34,,12,,78,,54,,2b/8h[16:15],,,
{4},2,2-7[8:1],2,
{16}7b/8bv5[8:1],,5<1[8:1]/4,,8/1,2,3,4,,,57,,3,5,2,,
{16}1bv4[8:1]/7b,,5/4>8[8:1],,1/8,7,6,5,,,71,,5,3,6,2,
{16}8b-6[8:1],,1,1,8-2[8:1],,5,5,8-5[8:1],,3,3,8v1[8:1],,4,4,
{16}8,,4,,48,37,26,1h[16:2]/5h[16:5],,,1,,1<6[8:1],2,3,4,
{16}5bV71[16:3]/1b,,2,,5/2,3,4,5,,,74,,3,4,2,,
{16}5b<1[8:1]/1b>5[8:1],,,,5/1,,,,7,3,6,,2,5,1,,
{8}8-3[8:1]/4v7[8:1],,84,,8-5[8:1]/4v1[8:1],,84,,
{16}5/1,2,3,4/2,3,4,5/3,4,5,,8b/6bv1[8:1],,,,,,
{16}2b>4[8:1],,4V26[16:3]/5,,2/8,7,6,5,,,7,,2,6,4,,
{16}7b<5[8:1]/1b,,5V73[16:3]/4,,7/1,2,3,4,,,2,,3,6,2,7,
{16}1b-3[8:1],,8,8,1-7[8:1],,4,4,1-4[8:1],,6,6,1v8[8:1],,5,5,
{16}1,,5,,51,62,73,8h[16:2]/4h[16:2],,,84,,84,73,62,51,
{16}4b/8b,,26,,1-5[8:1],5,8-4[8:1],6,,,,,2>5[8:1],,1,,
{16}6b/2b,,8,,2-6[8:1],5,1-5[8:1],6,,,,,2<3[8:3],,83,,
{8}2b,,8h[8:1],,6h[8:1]/2h[8:1],,
{16}5/1,4,3,2,1bpp6[8:4]/4bqq7[8:4],,,,{4},,,
{16}2b/6b,,3,5,4,,36,,2>5[8:1],7,1,8,2,,,,
{16}8b/4b,,7,5,6,,53,,7<4[8:1],2,8,1,7,,8,,
{4}1b/6b,2,38,4,52,6,74,8w4[8:1],,,,E
