&title=夢幻
&artist=上松范康 feat. 水树奈奈
&first=0
&des=Ogata Rina
&lv_5=13+
&inote_5=(145)
{8}
,,,,,,,,,,,,,,,,,,,,,,,,
{16}
5h[4:2],,,4,,,3,,3h[4:2],,,6,,,7,,7h[4:2],,,2,,,1,,1h[4:2],,,,8,,,,
8b,,,17,,,26,,
{8}
3b/5-1[8:1],1-5[8:1],5,,
3,3,3,3,3>8[8:1],8<5[8:1],3,,
1h[8:3],,,,5,6,4,5,
3h[8:3],,6,5,3,4,7,3,6,2,5,1,6h[4:2],2,3,4,
{16}
5,,2,3,4,,4,,6,,4,,5,,3,,
{8}
6b/4b,5b/3b,7b/4b,5b/2b,
{16}
1,4,2,5,3,6,4,7,
{8}
5h[4:1],6<4[4:2],,6h[4:1],,,5,5,3h[4:1],2<4[4:2],,2h[4:1],,,3,3,
1-5[8:1],5<3[4:2],1,,,6,7h[4:1],,
{16}
4,,6,5,7,,,,
4b/8b,,,37,,,26,,
15,,3,4,2,,6h[8:11],,
{8}
,5,4,3<1[8:5],,,,,,,,,
{16}
6-2[16:3],,,2<8[16:5],,,2,,8-4[16:3],,,4<6[16:5],,,4,,
3,,3,2,1,,1,,
{8}
6<8[8:1]/1>3[8:1],,,,
{16}
4-8[16:3],,,8>2[16:5],,,8,,2-6[16:4],,,,6>4[16:4],,,,
{8}
7h[8:3],,,,7<5[8:1]/4>2[8:1],,,,
{16}
1-5[16:3],,,5-8[16:3],,,5-2[8:1],,,,,,7-4[8:1],,3-8[8:1],,7,,3,,
{8}
5h[8:3],1h[16:7],,,,,5,,,
{16}
1<7[8:1],1,1p7[4:2],,,,,,,,,,,,,,,,7,6,5,4,,,,,
4-1[16:3],,,1-6[16:5],,,1,,6-3[16:3],,,3-8[16:5],,,3,,
7,,7,6,5,,5,,
{8}
5<7[8:1]/8>2[8:1],,,,
{16}
8-5[16:3],,,5-2[16:5],,,5,,2-7[16:4],,,,7-4[16:4],,,,
{8}
1h[8:3],,,,1>3[8:1]/4<6[8:1],,,,
3h[16:3]/6h[8:3],,,,3-5[8:1],6-4[8:1],3-1[8:1],6-8[8:1],
3<1[4:2],6,3,7,8h[4:1],,,
{16}
1,8,
{8}
1-5[4:3],,8,2,7,3,6,4,
6<3[4:3],,6,6h[8:3],,,,5,
5h[4:2],,4,3,2h[4:2],6,4,7,
{16}
3,,2,3,2,,4,,5,,6,5,6,,7,,
{8}
8<4[4:1],,4>8[4:1],,8p4[4:1],,4p8[4:1],,8h[4:2],,,4h[8:3],,,,,
5<1[4:1],,1>5[4:1],,5q1[4:1],,1q5[4:1],,
{16}
5h[16:3],,,,,,2,,3h[4:1],,,,,,,,
3b/5b,,,4b/6b,,,2b/5b,,,,4b/7b,,,,,,
3b/7b,,,2b/6b,,,1b/5b,,,,4b/8b,,,,,,
5>2[8:2],,,6,,,7,,8<5[8:2],,,1,,,2,,
3>5[4:1],,,,,,3,3,
{6}
3h[6:1],2h[6:1],1h[6:1],
{8}
8p5[4:3],,2,2,3,3,4,4,
{16}
4b,,,26,,,48,,
{8}
1-5[8:1]/3b,,1b/7b,,
6-3[8:1],3-6[8:1],6-1[8:1],1-6[8:1],4-1[8:1],4,,5,
5<8[8:1],8>3[8:1],3<6[8:1],4h[8:1],,3,5h[8:1]/2,,
3-6[8:1],6-3[8:1],3-8[8:1],8-3[8:1],5-8[8:1],5,,4,
4b,3,2-7[8:1]/6,35,2-5[8:1]/4b,,2b/8b,,
4-1[8:1],1-4[8:1],4-7[8:1],7-4[8:1],5-8[8:1],5,,4,
4>1[8:1],1<6[8:1],6>3[8:1],5h[8:1],,6,4h[8:1]/7,,
4b/8b,48,3/7-4[8:1],26,7b/2-5[8:1],1,2b/7,8,
{16}
2b/7b,,4,5,4,,6,3,6,,2,7,2,,18,,
{8}
2b/8b,2b/3b,4b/5b,6b/7b,1b/8b,,,,
8-4[4:6],1,2,3h[4:1],,,7,2,6,3,5h[4:2],,,,,,
3b/6b,2h[8:1]/7h[8:1],,2-5[8:1]/6-1[8:1],,2<2[8:17]/6>6[8:17],,2b/6b,
