&title=手紙 〜拝啓 十五の君へ〜
&artist=アンジェラ・アキ
&first=-0.035
&des=Ragna
&lv_5=14
&inote_5=(63){4},{16},,,,3/4,4/5,{8}5/6h[16:7],{16},5V31[4:1],4V28[4:1],3V17[4:1],
4,5,,,,,,,6/5,5/4,{8}4/3h[16:7],{16},4V68[4:1],5V71[4:1],6V82[4:1],
5,4,,,,,,,3/4,4/5,{8}5/6h[16:3],{16},3>1[16:1]*-1[16:1],1<7[16:1],7<5[16:1]*-5[16:1],
5>3[16:1],3,,,,8-2[16:1],2>4[16:1]*-4[16:1],4-6[16:1],6<8[16:1]*-8[16:1],8-4[16:1],,,,,1>3[16:1],3<5[16:1]*-5[16:1],
5<7[16:1],7V15[8:1]*>1[16:1],,,,,,,4,3qq3[4:1],{8}2,{16},3<8[16:5],4<1[16:5]*V68[4:1],5<2[16:5],
6<3[16:5]*-8[8:1],7>4[16:5],,,,,,,5,6pp6[4:1],{8}7,{16},6>1[16:5],5>8[16:5]*V31[4:1],4>7[16:5],
3>6[16:5]*-1[8:1],2<5[16:5],,,,,,,4,3qq4[4:1],{8}2,{16},4<4[2:1],5<5[2:1],6<6[2:1],
7>7[2:1],8>8[2:1],,,,4<4[2:1],5<5[2:1],6<6[2:1],7>7[2:1],8>8[2:1],,,,,5<2[16:5],6<3[16:5],
7>4[16:5],8>5[16:5],{8}1>5[4:1],{16},,,,6,7V16[4:1],{8}8,{16},6>1[16:5],5>8[16:5]*V31[4:1],4>7[16:5],
3>6[16:5]*-1[8:1],2<5[16:5],,,,,,,3,2V83[4:1],{8}1,{16},3<8[16:5],4<1[16:5]*V68[4:1],5<2[16:5],
6<3[16:5]*-8[8:1],7>4[16:5],,,,,,,6,7V15[4:1],{8}8,{16},5>5[2:1],4>4[2:1],3>3[2:1],
2<2[2:1],1<1[2:1],,,,5>5[2:1],4>4[2:1],3>3[2:1],2<2[2:1],1<1[2:1],,,,,4>7[16:5],3>6[16:5],
2<5[16:5],1<4[16:5],{8}8<4[4:1],{16},,,,3,2V83[4:1],{8}1,{16},3<3[2:1],4<4[2:1]*z8[4:1],5<5[2:1],
6<6[2:1],7>7[2:1],,,,,,,6<6[2:1],7>7[2:1],{8}8h[16:1],8h[16:1],{16}4<1[16:5]*z8[4:1],5<2[16:5],
6<3[16:5],7>4[16:5],,,,,,,5,6pp6[4:1],{8}7,{16},6>6[2:1],{8}5>5[2:1]*s1[4:1],
{16}3>3[2:1],2<2[2:1],,,,,,,3>6[16:5],2<5[16:5],{8}1h[16:1],1h[16:1],{16}4,4qq3[8:1]*pp5[8:1],
,8,,4,,,{8}4h[8:1],7h[8:3],{16}8b-2[16:1],2-6[16:1],6-4[16:1],4,{8}8,
{16}8-2[16:1],2-6[16:1],6-4[16:1],4,{8}8,{16}1-3[16:1],1-7[16:1],5-3[16:1],5-7[16:1],1v4[16:1],1v6[16:1],5v2[16:1],5v8[16:1],1,1pp4[4:1]*qq6[4:1],
5,5,,,,,,,,7/3h[4:1],,4,6,8-6[16:1]*-2[16:1],6-4[16:1]/2-4[16:1],4V28[8:1]*V68[8:1],
,8,,,,,,2h[8:1]/6h[8:1],,,5<8[16:1],5>2[16:1],5,1q4[16:3]*p6[16:3],5,5,
,1,,,,,{8}5h[8:1],2h[8:3],{16}1b<7[16:1],7-3[16:1],3<5[16:1],5,{8}1,
{16}1<7[16:1],7-3[16:1],3<5[16:1],5,{8}1,{16}8<6[16:1],8>2[16:1],4<6[16:1],4>2[16:1],8v5[16:1],8v3[16:1],4v7[16:1],4v1[16:1],8,8qq5[4:1]*pp3[4:1],
4,4,,,,,,,,2/6h[4:1],,5,3,1>3[16:1]*<7[16:1],3<5[16:1]/7<5[16:1],5<1[8:1]*>1[8:1],
,1pp5[16:3]*qq5[16:3],,,,,,,,,{8}4V25[6:1]/6V85[6:1],,4qq6[4:1]/6pp4[4:1],
,4V68[6:1]/6V42[6:1],,,,2V47[6:1]/8V63[6:1],,8q3[4:1]/2p7[4:1],
,2/8,{16},,,,6/5,5/4,{8}4/3h[16:3],{16},6<8[16:1]*-8[16:1],8-2[16:1],2>4[16:1]*-4[16:1],
4-6[16:1],6,,,,1<7[16:1],7<5[16:1]*-5[16:1],5>3[16:1],3>1[16:1]*-1[16:1],1-5[16:1],,,,,8-6[16:1],6>4[16:1]*-4[16:1],
4-2[16:1],2V84[8:1]*<8[16:1],,,,,,,5/3,6/2,{8}1/7h[8:3],{16},5V71[8:1]*V31[8:1],3-1[16:1],1V75[8:1]*V35[8:1],
3V51[48:7],5-1[12:1],,,,,,,8/2,7/3,{8}4/6h[8:3],{16}2,8V64[8:1]*V24[8:1],2-4[16:1],4V68[8:1]*V28[8:1],
2V84[48:7],8-4[12:1],,,,,,,5/3,6/2,{8}1/7h[8:3],{16},8<4[8:1]*>2[16:1],2>4[16:1],4-8[12:1],
2,8,{32},,,,,,{64},{32}5h[32:3],,,{16}6h[12:1],{48},7h[48:5],,,,,{8}8h[8:1],1h[8:1],{64}2V48[2:1],3,{32}4h[64:67],{4},,,{16},,,{64},,,7,
6,5h[64:35],{4},,{64}8,
7V51[64:101],{2}6bV84[16:25],,,,,,,,
E
