&title=Q
&artist=椎名もた
&first=0
&des=Luner
&lv_5=13+
&inote_5=(240)
{1}
,,
{8}
1>7[4:6],,,,
,,,,
,,,,
,,,,
5<3[4:6],,,,
,,,,
,,,,
,,,,
8<2[4:6],,,,
,,,,
,,,,
,,,,
4>6[4:6],,,,
,,,,
,,,,
,,,,
5>5[4:10]/4h[4:12],,,,
,,,,
,,,,
,,,,
,,,,
,,,,
8,,8,,8,,8,,
4,,3h[4:1],,
2,3,
4,3h[4:1],
,4,
3h[4:1],,
4,5,6h[4:1],,
5,,6h[4:1],,
7,6,
5,6h[4:1],
,5,
6h[4:1],,
5,4,3h[4:1],,
1,,2h[4:1],,
3,2,
1,2h[4:1],
,1,
2h[4:1],,
1,8,7h[4:1],,
8,,7h[4:1],,
6,7,
8,7h[4:1],
,8,
7h[4:1],,
8,1,2h[4:1],,
3,,4h[4:1]/3,,
2,3,
4,5h[4:1]/3,
,4,
3h[4:1],,
4,3,2h[4:1]/5,,
6,,5h[4:1]/6,,
7,6,
5,4h[4:1]/6,
,5,
6h[4:1],,
5,6,7h[4:1]/4,,
2,,1h[4:1]/2,,
3,2,
1,8h[4:1]/2,
,1,
2h[4:1],,
1,2,3h[4:1]/8,,
7,,8h[4:1]/7,,
6,7,
8,1h[4:1]/7,
,8,
7h[4:1],,
8,7,6h[4:1]/1,,
1V35[4:2],,5,5,
,7,7,,
8V64[4:2],,4,4,
,2,2,,
1>5[4:2],,5,5,
,7,7,,
8<4[4:2],,4,4,
,2,2,,
4V68[4:2],,1,1,
,3,3,,
5V31[4:2],,8,8,
,6,6,,
4<8[4:2],,1,1,
,3,3,,
5>1[4:2],,8,8,
,6,6,,
1V35[4:2],,5,6,
,6,7,,
8V64[4:2],,4,3,
,3,2,,
1>5[4:2],,5,6,
,6,7,,
8<4[4:2],,4,3,
,2,1,,
4V68[4:2],,1,2,
,3,4,,
5V31[4:2],,8,7,
,6,5,,
4<8[4:2],,1,2,
,3,4,,
5>1[4:2],,8,7,
,6,5,,
1>1[1:1]*<5[2:1],,,,
,,,,
1<1[1:1]*>5[2:1],,,,
,,,,
1>1[1:1]*<5[2:1],,,,
,,,,
1<1[1:1]*>5[2:1],,,,
,,,,
1>1[1:1]*<5[2:1],,,,
,,,,
1<5[2:1]*>5[2:1],,,,
,,,,
1b-5[8:1]*-5[8:1],,,,
,,,,
,,,,
1-5[8:1],,1<2[8:3],,
4h[8:4],,,,
,,3-8[8:1],,
7-3[8:1],,1-6[8:1],,5-1[8:1],,3,,
2-5[8:1],,1,8-4[8:1],,1-5[8:1],,5,
6-1[8:1],,4,,8-4[8:1],,8>7[8:3],,
5h[8:4],,,,
,,6-1[8:1],,
2-6[8:1],,8-3[8:1],,4-8[8:1],,6,,
7-4[8:1],,8,1-5[8:1],,8-4[8:1],,4,
3-8[8:1],,5,,
1-5[8:1],,1<2[8:3],,
4h[8:4],,,,
,,3-8[8:1],,
7-3[8:1],,1-6[8:1],,5-1[8:1],,3,,
2-5[8:1],,1,8-4[8:1],,1-5[8:1],,5,
6-1[8:1],,4,,
8-4[8:1],,8>7[8:3],,
5h[8:4],,,,
,,6-1[8:1],,
2-6[8:1],,8-3[8:1],,4-8[8:1],,6,,
1,5,,1,,1,,1,
7^2[4:1],,2^7[4:1],,
,,,,
2-4[8:1],,5,,1-5[8:1],,4,,
2-4[8:1],,5,,1-5[8:1],,4,,
2-4[8:1],,5,,1-5[8:1],,4,,
2-4[8:1],,5,,1-5[8:1],,4,,
8-4[8:1],,5,,7-5[8:1],,4,,
8-4[8:1],,5,,7-5[8:1],,4,,
8-4[8:1],,5,,7-5[8:1],,4,,
8-4[8:1],,5,,7-5[8:1],,4,,
2-4[8:1],,5,,1-5[8:1],,4,,
8-4[8:1],,5,,7-5[8:1],,4,,
2-4[8:1],,5,,1-5[8:1],,4,,
8-4[8:1],,5,,7-5[8:1],,4,,
1^4[8:1],,,,
6^1[8:1],,,,
3^6[8:1],,,,
8^3[8:1],,,,
4,5,4,5,
4,5,4,,
{16}
4,3,2,1,8,7,6,5,
4,3,2,1,8,7,6,5,
4,3,2,1,8,7,6,5,
4h[1:2]/8h[1:2],,,,
,,,,
{8}
,,,,
,,,,
,,,,
,,,,
{16}8h[128:1],7h[128:1],6h[128:1],5h[128:1],
4h[128:1],,,,
4h[128:1],3h[128:1],2h[128:1],1h[128:1],
8h[128:1],,8h[128:1],,
,,,,
,,,,
{16}1b/5b,26,37,48,{8}1<2[8:3]/5,,
1/4h[8:4],,,,
,,3-8[8:1],,
7-3[8:1]/3,,1-6[8:1]/7,,5-1[8:1]/1,,35,,
2-5[8:1],,12,8-4[8:1],,1-5[8:1]/8,,15,
6-1[8:1],,46,,
{16}84,73,62,51,{8}8>7[8:3]/4,,
8/5h[8:4],,,,
,,6-1[8:1],,
2-6[8:1]/6,,8-3[8:1]/2,,4-8[8:1]/8,,64,,
7-4[8:1],,87,1-5[8:1],,8-4[8:1]/1,,84,
3-8[8:1],,35,,
{16}15,26,37,48,{8}1<2[8:3]/5,,
1/4h[8:4],,,,
,,3-8[8:1],,
7-3[8:1]/3,,1-6[8:1]/7,,5-1[8:1]/1,,35,,
2-5[8:1],,12,8-4[8:1],,1-5[8:1]/8,,15,
6-1[8:1],,46,,
{16}84,73,62,51,{8}8>7[8:3]/4,,
8/5h[8:4],,,,
,,6-1[8:1],,
2-6[8:1]/6,,8-3[8:1]/2,,4-8[8:1]/8,,64,,
1,5,,1,,1,,1,
6^3[4:1],,3-6[4:1],,
,,,,
2-4[8:1],,4,,1-5[8:1],,5,,
2-4[8:1],,4,,1-5[8:1],,5,,
2-4[8:1],,4,,1-5[8:1],,5,,
2-4[8:1],,4,,1-5[8:1],,5,,
8-4[8:1],,4,,7-5[8:1],,5,,
8-4[8:1],,4,,7-5[8:1],,5,,
8-4[8:1],,4,,7-5[8:1],,5,,
8-4[8:1],,4,,7-5[8:1],,5,,
2-4[8:1],,4,,1-5[8:1],,5,,
8-4[8:1],,4,,7-5[8:1],,5,,
2-4[8:1],,4,,1-5[8:1],,5,,
8-4[8:1],,4,,7-5[8:1],,5,,
1^4[8:1],,,,
6^1[8:1],,,,
3^6[8:1],,,,
8^3[8:1],,,,
4,5,4,5,
4,5,4,,
4>8[4:1],,8<4[4:1],,,,,,
3,,4h[4:1]/3,,
2,3,
4,5h[4:1]/3,
,4,
3h[4:1],,
4,3,2h[4:1]/5,,
6,,5h[4:1]/6,,
7,6,
5,4h[4:1]/6,
,5,
6h[4:1],,
5,6,7h[4:1]/4,,
2,,1h[4:1]/2,,
3,2,
1,8h[4:1]/2,
,1,
2h[4:1],,
1,2,3h[4:1]/8,,
7,,8h[4:1]/7,,
6,7,
8,1h[4:1]/7,
,8,
7h[4:1],,
8,7,6h[4:1]/1,,
3,,2h[4:1]/4,,
5,4,6,7h[4:1]/4,
,3,
2h[4:1]/5,,
8,1,2h[4:1]/7,,
6,,7h[4:1]/5,,
4,5,3,2h[4:1]/5,
,6,
7h[4:1]/4,,
1,8,7h[4:1]/2,,
2,,3h[4:1]/1,,
8,1,7,6h[4:1]/1,
,2,
3h[4:1]/8,,
5,4,3h[4:1]/6,,
7,,6h[4:1]/8,,
1,8,2,3h[4:1]/8,
,7,
6h[4:1]/1,,
4,5,6h[4:1]/3,,
2q4[4:6],,,,
,,,,
,,,,
,,,,
6q8[4:6],,,,
,,,,
,,,,
,,,,
2qq4[4:6],,,,
,,,,
,,,,
,,,,
6qq8[4:6],,,,
,,,,
,,,,
,,,,
3V14[4:6]/5V74[4:6],,,,
,,,,
,,,,
,,,,
5<1[4:6]*>1[4:6],,,,
,,,,
,,,,
,,,,
8-4[4:6]/7-1[4:6],,,,
,,,,
,,,,
,,,,
3V15[4:6]*v5[4:6],,,,
,,,,
,,,,
,,,,
