&title=Chronomia
&artist=Lime
&first=0
&des=もふもふウサギ
&lv_5=14+
&lv_6=14
&inote_1=
&inote_2=
&inote_3=
&inote_4=
&inote_5=(227){1},,,,
{4}
2b/6h[1:1],,,,{8}5h[8:3],,,7h[8:3],,,2,1,
,1,{4}3h[4:3],,,6,5,4,3,
2h[1:1],,,,{8}4h[8:3],,,1h[8:3],,,7,8-4[8:5],
{4},,,,3,2,1,8,
2bqq5[4:3]/7h[4:3],,,,{8}6h[8:3],,,7h[8:3],,,8,,
6-1[8:1]/1b,,2,4b-8[8:1],,7,5bw1[2:1],,
{4},,,{8}2,1,
8h[8:3],,,7h[8:3],,,6h[4:1],,
1h[8:3],,,2h[8:3],,,3h[4:1],,
5h[4:3],,,,,,4,4w8[2:1],
{1},
{8}
4h[4:1]/6h[4:1],,,5h[4:1]/3h[4:1],,,
4h[4:1]/7h[4:1],,,5h[4:1]/2h[4:1],,,
{12}2,1,8,7,6,5,
{4}4qq8[1:1]/6,6,6,6,6,6,6/2h[4:1],6,
36,{8}6,4,{4}6,4h[4:1]/6,6,36,37,31,
38,{8}3,7,{4}3,3/6h[2:1],3,3,{8}35,5,{4}3/6,
36,{8}3,5,{4}3,2-5[8:1]/6-1[8:1],26,{8}48,2b/6b,{4},{16}4,5,4,5,
{8}
3^8[8:1],,3,5^8[8:1],,5,1q5[8:1],,
6^1[8:1],,6,4^1[8:1],,4,5q1[8:1],,
2^5[8:1],,2,8^5[8:1],,8,4,,
{4}3^8[4:1]/6,8^5[4:1],5^2[4:1],2,
{8}7^4[8:1],,7,1^4[8:1],,1,5,,
{4}3-8[8:1]/7-4[8:1],73,{8}51,62,7/3-7[8:1],,
6-4[8:1],,6,2-8[8:1],,2,6,,
{16}37,,26,,15,,48,,1,2,3,4,5,6,7,8,
1,,6,5,6,,2,,5,4,5,,2,4,3,,
7,8,7,,1,,2,,6,4,5,,3,,3,,
{24}7,6,5,{4}4-7[8:1],2b-5[8:1]/4b,2b/8b-4[8:1],1b/8b,
{8}
3,3,5,5,{16}4,6,3,7,2,8,
{4}1b-6[8:1]*-4[8:1],1,{16}5,3,6,2,7,1,
{4}8b-4[8:1],3-7[8:1]/8,35,{16}48,,1b/5b,,,,
{24}2/7h[16:5],3,4,{8}5-1[8:1],,65,,,
{24}2/7h[16:5],3,4,{8}5-1[8:1],,65,{16}8,7,6,5,
3,4,5,6,7,8,1,2,
{24}1/3h[16:5],8,7,{8}6-2[8:1],,56,,,
{24}1/3h[16:5],8,7,{8}6-2[8:1],,56,{16}3,4,5,6,
{24}7,8,1,2,3,4,5,6,7,8,1,2,
{4}
3b/5b-7[4:1],7-3[4:1],3-8[4:1],8>4[4:1],
4<8[4:1],8>4[4:1],4<8[4:1],8,
{8}1h[2:1],3,3,3,7h[8:3],8,{16}8,,2,3,
{8}
4h[8:5],1,1,1,{16}7,,7,6,4/5-1[8:1],,,,
{8}
45,,,5s1[1:1],{4}5z1[8:7],,,,,,
{8}
2,1,3-8[8:1],,3,6-3[8:1],,6,8-4[8:1],,
8,{16}5,6,7,8,{8}1b/2b,,
37,{16}4,6,4,6,
{8}
2h[4:1]/7h[4:1],,,1h[4:1]/6h[4:1],,,
2h[4:1]/5h[4:1],,,
3-7[4:1]/4-8[4:1],,,,,{16}5,3,5,3,
{8}
2h[4:1]/7h[4:1],,,3h[4:1]/8h[4:1],,,
1h[4:1]/2h[4:1],,,
6-2[4:1]/5-1[4:1],,,,,8b,,
{4}
,,{8}6,5,7h[8:3],,,3h[8:3],,,4,,
2h[8:3],,,6h[8:3],,,5,,{32}7,8,{16},,,
{8},,45,,,26,
{1}2-6[2:1]/6,2v7[2:1],
{2}3v8[2:1],4,{128}1q7[2:1],5q3[2:1],{64},{32},{16},{8},,,{2},
{8}8b-4[8:1],4V68[8:1],8,2,{16}1,2,3,4,
{8}5-1[8:1]/6,,5/8-4[8:1],,38,2-5[8:1],,27,
8<4[4:1],,{16}4,3,2,1,{4}8w4[8:1],8,26,
{16}1,2,3,4,7,6,5,4,2,3,4,5,8,7,6,5,
{8}1-5[8:1],5V31[8:1],1,7,{16}8,7,6,5,
{8}4-7[8:1]/3,,4/2-5[8:1],,62,8-4[8:1],,8/2^5[8:1],
2,{24}6,7,8,{4}1w5[8:1],1,8w4[8:1],8,
{16}8,7,6,5,2,3,4,5,7,6,5,4,1,2,3,4,
{8}
7v4[8:1],4V61[16:3],7,2,{16}2,3,4,5,{8}68,8,
2v5[8:1],5V38[16:3],2,7,{16}7,6,5,4,{8}31,1,
6bz2[8:1],,2,4bz8[8:1],,8,5bw1[4:1],,
{4},,,{8}7,8,
1/6h[8:3],5,4,3h[8:3],7,8,1h[4:1],2,
3h[8:3],8,7,6h[8:3],2,1,8h[4:1],5,
{4}
4q8[4:1],8q4[4:1],4<8[4:1],{8}8>4[4:1],1h[4:1],
{4}
,1w5[8:1],1,{8}2,1,
8/3h[8:3],4,5,6h[8:3],2,1,8h[4:1],7,
6h[8:3],1,2,3h[8:3],7,8,1,,
{16}
65,4,3,2,1,,18,7,6,5,4,,43,5,6,7,
48,3,2,1,8,7,36,2,1,8,7,6,
{8}
1,8,
{8}
2v5[8:1],5V38[16:3],2,7,{16}7,6,5,4,{8}31,1,
7v4[8:1],4V61[16:3],7,2,{16}2,3,4,5,{8}6/8-4[8:1],,
3b/8b,2-5[8:1],,2b/6b,7-4[8:1],,1b-5[8:1]/7b,,
1/6-1[8:1],,6b/3b,,4/8b,4b/8h[24:5],,{24}17,26,35,
{1}4bw8[2:1],6b,,,,,,,,,
{4}2,2-4[8:1],6,{8}5,3,6,4,7-5[8:1],,3,,4,6,3,5,3,4,
2-4[8:1],2,5,,6,5,7-5[8:1],7,4,,3,4,
2-5[8:1],2,6,6,7-4[8:1],7,3,2,
1-5[8:1],1,8-4[8:1],8,3,3,2b/6b,,
1h[16:5]/8h[16:5],,,2h[16:5]/7h[16:5],,,
{128}3pp8[2:1],6qq1[2:1],{64},{32},{16},{8},
{4},,,{8}1,2,
3b/8b,{16}6,5,{8}7-4[8:1],1-5[8:1],7,1,8,2,
37,{16}6,4,{8}7-5[8:1],8-4[8:1],7,8,1,3,
{16}
84,7,6,5,48,1,2,3,46,5,4,3,2,1,8,7,
61,2,3,4,51,8,7,6,53,4,5,6,7,8,1,2,
37,,6,4,5,,2,,6,4,8,,1,,7,,
62,,3,5,4,,7,,3,5,1,,8h[2:1],,,,
{24}7,6,5,4,3,2,{8}1h[8:3],
{24}2,3,4,5,6,7,{8}8h[8:3],
{24}7,6,5,4,3,2,
{4}1w5[8:1],1,8w4[8:1],8,
{8}
6b/1b,{16}3,4,{8}2-5[8:1],8-4[8:1],2,8,1,7,
62,{16}3,5,{8}2-4[8:1],1-5[8:1],2,1,8,6,
{16}
15,2,3,4,51,8,7,6,53,4,5,6,7,8,1,2,
38,7,6,5,48,1,2,3,46,5,4,3,2,1,8,7,
2b,,6,5,6,,2b,,6,5,6,,2b,,6,5,
6,7,8,1,4,3,2,1,78,6,5,4,
{32}1,2,3,4,5,6,7,8,
{128}1q3[2:1],5q7[2:1],{64},{32},{16},{8},,,,,,,
{12}1,4,2,8,5,7,{8}36,45,,,
62,1-5[8:1],,71,8-6[8:1],,
38,2-4[8:1],,27,8-4[8:1],,
84,3-1[8:1],,63,5-7[8:1],,
35,4-1[8:1],,48,7-4[8:1],,
87,1,,
15,15,15,15,15,,
37,8-4[8:1],,48,3-1[8:1],,
63,5-7[8:1],,58,1v4[8:1],,
16,8v5[8:1],,4b/8b,3-1[8:1],,
3b/5b,4-8[8:1],,4b/2b,3,,
8/4b,8b/4,8/4b,7b/3,6/2b,5b/1,4/8bp5[8:7],
{1},4bw8[4:7],,,,,,,,E
&inote_6=(227){1},,,,
{64}1b-5[2:1],2,,,{16},,,{4},,,
{8}3h[8:3],,,1h[8:3],,,3,{4}4q5[8:5],,,,{8},
{4}
4h[4:1],5h[4:1],6h[4:1],7,
{64}8-4[2:1],7,,,{16},,,{4},,,
{8}6h[8:3],,,8h[8:3],,,7,{4}5p4[8:5],,,,{8},
{4}
6h[4:1],7h[4:1],8h[4:1],1,
{8}2h[1:1]/7b,,4,4,,6,6,,
8h[1:1],,6,6,,4,4,,
2b-5[8:1],,,7b-2[8:1],,,4b<3[8:5],,
{4},,,{8}5,2,
2h[8:3],,,1h[8:3],,,3,,
7h[8:3],,,6h[8:3],,,5,,
5-1[2:1],,,,,,5,5<4[8:5],
{4},,,{8},,
6b/5b,,,3b/4b,,,1b/6b,,,3b/8b,,,
{12}7,6,5,2,3,4,
{4}5>8[4:3]/7,7,6,6,
5,5^8[4:1],1,1,
{8}47,,6,5,6,,47,,
2^7[4:1],,7^4[4:1],,4-8[4:1],,8,,
5h[4:1],,2,4,3,,1^4[4:1]/5,,
5,,5,,36,27,18,,
18,,7,2,7,,2-5[8:1]/7-4[8:1],,
27,,18,2b/7b,,,{16}4,5,4,5,
{8}
3h[8:1]/6pp2[1:1],,3h[8:1],,3h[8:1],,3h[8:1],,
3h[8:1],,3h[8:1],,3h[8:1]/1h[4:1],,3h[8:1],,
6h[8:1]/2V48[2:1],,6h[8:1],,6h[8:1],,6h[8:1],,
1>5[4:1]/6,,5<1[4:1],,1,,5,,
2h[8:1]/6V48[2:1],,2h[8:1],,2h[8:1],,2h[8:1],,
1-5[8:1]/2-6[8:1],,12,,47,38,1/2pp8[4:3],,
7h[8:1],,7h[8:1],,7h[8:1],,7h[8:1],,
{16}
72,3,4,5,6,7,8,1,2,3,4,5,6,7,8,1,
2,,7,5,7,,3,,6,5,6,,4,,5,,3,4,3,,
8,,1,,8,7,6,5,8,1,2,3,{8}5b/4b,,,
3b-8[8:1]/7b-4[8:1],,3b/7b,,2b/6b,,45,45,
3,3,{16}7,8,1-5[8:1],2,3,4,
{8}5/1b,,27,,{16}6,5,4-8[8:1],3,2,1,
{4}48,6-1[8:1]/2-5[8:1],62,{8}48,2b/6b,,
{24}1,2,3,{4}4h[4:1],{24}2,3,4,{4}5,
{24}1,2,3,{4}4h[4:1],{24}2,3,4,{4}5qq1[8:3],,,
{24}8,7,6,{4}5h[4:1],{24}7,6,5,{4}4,
{24}8,7,6,{4}5h[4:1],{24}7,6,5pp8[12:5],{4}4qq1[8:3],,,
2b/7b,
{16}
3,5,3,,6,4,6,,2,4,2,,7,5,7,,2,1,2,,7,8,7,,
1,8,1,8,{8}1-3[8:1],5,1-5[8:1],5-3[8:1],1,7,
7-5[8:1],1,7-3[8:1],3,7V15[4:1],1,7,,4<8[4:1],,8>4[4:1],,,
5V71[4:3],{4}5V31[8:5],,,,,,
{8}
6,5,7h[4:1],,8,6/1h[4:1],,8,7/2h[4:1],,
1,{16}1,8,7,6,{4}5b/4b,{16}1,,1,2,3,4,
{8}
5h[4:1]/7h[4:1],,,4h[4:1]/6h[4:1],,,
3h[4:1]/5h[4:1],,,2h[8:5]/4^1[4:1],,,,,{16}8,7,6,5,
{8}
4h[4:1]/3h[4:1],,,2h[4:1]/5h[4:1],,,
8h[4:1]/1h[4:1],,,7-5[4:1]/4-8[4:1],,,,,
{4}
1b,,,{8}3,4,2h[8:3],,,1h[8:3],,,4,,
8h[8:3],,,7h[8:3],,,6,,{64}3,6,{32},,,
{8},,,45,,,26,
{1}2h[64:129]/6h[64:1],7h[64:1],8v3[2:1],
5w1[2:1],
{4}
8b-4[8:1]/3h[4:1],8,{16}15,26,37,48,{8}1-5[8:1]/5,,
1/3-8[8:1],,3,4-7[8:1],,4,1,,
{12}81,2,3,47,6,5,41,2,3,{4}4-2[8:1]/5,
6-4[8:1],8-2[8:1]*-6[8:1],8-4[8:1],8,
1-5[8:1]/6h[4:1],1,{16}84,73,62,51,{8}8-4[8:1]/4,,
8/6-1[8:1],,6,5-2[8:1],,5,8,
{12}8,7,6,52,3,4,58,7,6,{8}54,{4}3-5[8:1],
7-5[8:1],1-7[8:1]*-3[8:1],1-5[8:1],1,
{8}3-8[8:1]/7-4[8:1],,37,,{16}1,2,3,4,57,,7,,
4,5,4,,6,,3,4,3,,5,,2,1,2,1,
{8}3b-7[8:1],,7,5b-1[8:1],,1,4bw8[8:3],,
{4},,,{8}6,5,
7-3[8:1],,3,1V37[4:1],,1,8h[4:1],,
5-1[8:1],,1,7V53[4:1],,7,1-5[8:1],,
{4}1^6[8:1],1^4[8:1],1,{8}7,7h[8:5],{16}1,2,3,4,
{4}5-1[8:1],,{8}7,8,
{16}
5,4,5,,3,,6,5,6,,4,,8,,1,,
4,5,4,,6,,3,4,3,,5,,2,,1,,
3,2,1,8,7,6,4,3,2,1,8,7,
{4}2pp1[2:1]/6pp5[2:1],
26,,,{8}3,4,
2-6[8:1],,6,8V62[4:1],,8,1h[4:1],,
4-8[8:1],,8,2V46[4:1],,2,8-4[8:1],,
3b/8b,2-5[8:1],,2b/6b,7-4[8:1],,3b/7b,,
2-7[8:1]/6-3[8:1],,2b/6b,,5b/1b,7b/3b,,{24}18,27,36,
{128}4bw8[2:1],5bw1[2:1],{64},{32},{16},{8},{4},,,{1}6b,
3h[1:1],4h[1:1],5-1[4:3],,
6h[1:1],5h[1:1],4-8[4:3],,
{4}
3,3,2h[64:1]/4,{8}5,4,6,5,6,,5/7h[64:1],,
4,5,3,5,3,4,3,3,2h[64:1]/5,,
5,4,6,6,7h[64:1]/4,,3,4,
2,1,8/3h[64:1],7,7,8,1/6h[64:1],2,
2,1,8/3h[64:1],7,4,5,3b/6b,,
1h[16:5]/5h[16:5],,,2h[16:5]/6h[16:5],,,
{128}3q5[2:1],7q1[2:1],{64},{32},{16},{8},
{4},,,{16}4p8[8:1],,4,,
7,6,5h[4:1],,1-5[8:1],2,3h[4:1],,1,,,,3^8[8:1],,3,,
7,6,5h[4:1],,1-5[8:1],2,3h[4:1],,1,,,,2,,2,,
{12}6,5,6,3,4,3,
{16}8,7,6,5,8,1,2,3,
{12}6,5,6,3,4,3,
{16}8,7,6,5,3,2,1,8,
{8}7v4[8:1],7,1,1,{16}5,6,7,8,{8}1/2v5[8:1],2,
8,8,{16}4,3,2,1,{8}78,16,2h[8:3]/5,,
{24}
1b,8,7,{8}6h[8:3],,{24}1b,2,3,{8}4h[4:1],,
{24}
2b,3,4,5,6,7,{4}1V35[4:1]/8,5V71[4:1],1,5q1[8:1],
{16}
2,3,4h[4:1],,8-4[8:1],7,6h[4:1],,8,,,,6^1[8:1],,6,,
2,3,4h[4:1],,8-4[8:1],7,6h[4:1],,8,,,,7,,7,,
{12}3,4,2,6,5,7,
{16}1,2,3,4,1,8,7,6,
{12}3,4,2,6,5,7,
{16}1,2,3,4,6,7,8,1,
2b,,6,5,6,,2b,,6,5,6,,3b,7,3,7,
{16}
4,6,4,6,3,5,3,5,2,6,2,6,
{24}3,4,5,6,7,8,
{128}1p8[2:1],5p4[2:1],{64},{32},{16},{8},,,,,,,
{12}1,8,2,7,3,6,{8}45,45,,,
18,2-6[8:1],,26,7-1[8:1],,
17,3-5[8:1],,36,7-3[8:1],,
37,2-8[8:1],,28,6-4[8:1],,
36,2-5[8:1],,26,8-4[8:1],,
82,1,,
15,26,37,48,15,,
45,3-1[8:1],,38,7-5[8:1],,
78,1-5[8:1],,16,7-1[8:1],,
27,3-5[8:1],,3b/6b,7-4[8:1],,
3b/7b,1-5[8:1],,1b/7b,8,,
8b/4,7/3b,6b/2,5/1b,{16}4b/8,15,6b/2,37,4/8bp5[8:7],,
{1},4b,{64}6,5,{32},{16},{8},{4},,,
{16}3,{24}4,{32}5,6,{24},,{4},,,
{1}
,,,,,E
