&title=四重罪孽
&artist=洛天依Official; 言和; 乐正绫; DELA
&first=-0.1
&des=Cart
&lv_5=13+
&inote_1=
&inote_5=(120){16},3,,1-4[16:1]/7,,,1/8-5[16:1],,,8,,,2-6[16:1],,,3,,4,,
{16}7-4[16:1]/3,,,2-5[16:1]/7,,,2,,,6h[8:1],,,6b,,5,,
{16}3/5,,,4/7,,,1/5,,,2h[8:1]/6h[8:1],,,2/6,,3/7,,
{16}8-5[16:1],,,8/2V48[16:1],,,2,,,7h[8:1],,,6,,3/5,,
{16}8-5[16:1]/2,,,8/1-4[16:1],,,1,,,7-3[16:1],,,6,,5,,
{16}2-5[16:1]/6,,,7-4[16:1]/2,,,7,,,3h[8:1],,,3b,,4,,
{16}6/4,,,5/2,,,8/4,,,7h[8:1]/3h[8:1],,,7/3,,6/2,,
{16}7pp5[4:1],,,3h[8:1],,,2h[8:1],,,1,,,3/7,,,,
{16}6h[8:1],,3h[8:1],,5,3h[16:3],,,7-1[8:1],,4,,7,,2-4[8:1],,2,,2/6-8[8:1],,6,,3/6,,3-5[8:1],,2/7,,3,,,,
{16}7-4[8:1],,1,,7,3h[16:3],,,5-7[8:1],,7v4[8:1],,5,,2h[8:1],,,,1h[8:1],,,,6V82[8:1],,2V46[8:1],,6,,4h[8:1],,,,
{16}2/3,,6/7,,,,3,,3h[4:1]/5,,,,7-5[8:1],,8,,2-6[8:1]/7,,1,,2/5,,,,
{16}8-5[8:1],,5-1[8:1],,8,,1>5[4:1],,,,5<1[4:1],,,,1-5[8:1],,1,,,,
{16}3-7[16:1],,3h[8:1],,,,4,,,,6h[2:1],,2h[8:3],,,,,,,,
{16}8,,1/7,,2,,6>4[8:1],,4-8[8:1],,8<6[8:1],,2,,3,,4-1[8:1],,3-6[8:1],,4,,3,,1,,5h[4:1],,7h[8:1],,,,
{16}3,,3/6v3[16:1],,2,6,,,1,,8>2[8:1]*<6[8:1],,2/6-2[8:1],,8,,,,3-5[8:1],,,,3,,7-5[8:1],,2,,7,,,,
{16}6/7,,2/3,,,,4,,4/6h[8:1],,,,6-8[8:1],,8-5[8:1],,5-1[8:1],,1-4[8:1],,4,,,,
{16}3,,2,,1,,8-4[8:1]/1-5[8:1],,,,8/1,,,,3h[4:1],,5h[8:1],,,,4-8[8:1],,4h[8:1],,,,3,,,,7h[8:3],,2h[4:1],,,,,,
{16}6b/7b-2[8:1],,,,7b/3b,,,,5,,
{48}3,4,5h[48:10],,,,
{16},,6,,3b-6[8:1]/2b,,,,3b/7b,,,,8,,
{48}1,2,3h[24:5],,,,
{16},,6,,7b-3[8:1]/6b,,,,7b/2b,,,,1h[8:1],,8,,2h[8:1],,7<4[8:1],,,,1/7,,2,,3,,,,7,,3,,6,,
{16}2bs6[8:1]/3b,,,,2b/7b,,,,8,,
{48}2,3,4h[24:5],,,,
{16},,5,,7b/6bv3[8:1],,,,6b/2b,,,,1,,
{48}7,6,5h[24:5],,,,
{16},,4,,8b-4[8:1]/1b,,7,,1b-5[8:1]/8b,,2,,1b/8b,,7h[4:1],,,,3,,
{48}7,6,5h[24:5],,,,
{16},,
{48}2,3,4,,,,
{16},,4/5,,
{48}4,5,6,7,8,1,2,3,4,5,6,7,8,1,2,
{16},6,,
{48}1b/8-4[8:1],2,3,,,,
{16}7,,1/8,1,,3h[8:1],,,2/7,,1/8,,2,,
{48}7b,6,5,,,,
{16}3,,2,2/6,,7,7/3,,2h[8:1]/6h[8:1],,,
{16},3,,
{48}8b/1-5[8:1],7,6,,,,
{16}2,,8/1,8,,6h[8:1],,,7/2,,8/1,,7-3[8:1],,6/8,,7,,2,2,,
{48}8,7,6h[48:13],,,,
{16},2h[8:1],,,,3,,
{48}7b,6,5h[48:19],,,,
{16}4,,3,3,,3,,,3/5,,4/6,,7<5[16:1]/8,,1,,
{48}7/2,3,4,,,,
{16}4,3/5,,3/5,2/6,,3h[8:1]/5h[8:1],,,,7,,
{48}2b,3,4,,,,
{16}6,,6/4,4h[8:1],,,8-4[8:1],,1/7,,8,,
{48}1b,2,3h[24:2],,,,,,,,,,3b/7b,2/6,1h[24:2]/5h[24:2],,,,
{16},,8,,
{48}2,3,4,,,,
{16}6h[8:1],,2,,
{16}6,,
{48}7b/8V24[8:1],6,5,,,,
{16}7,,8/7,7,,6h[8:1],,,7/2,,8/1,,7,,
{48}7b,6,5,,,,
{16}3,,2,2/6,,7,7/3,,2h[8:1]/6h[8:1],,,
{16},3,,
{48}2b/1V75[8:1],3,4,,,,
{16}3,,1/2,2,,3h[8:1],,,7/2,,8/1,,7-3[8:1],,6/8,,7,,2,2,,
{48}8,7,6h[48:13],,,,
{16},2h[8:1],,,,3,,
{48}8/2,7,6,,,,
{16}2h[8:1],,8,7,,1/7,,,2h[16:1]/6h[16:1],,3h[16:1]/5h[16:1],,1,,
{48}7/2,3,4,,,,
{16}6h[2:1],,3,2,,3,2,,3h[8:1],,,,7,,
{48}2b,3,4,,,,
{16}6,,6/4,4h[8:1],,,8-4[8:1],,1/7,,8,,
{48}1b,2b,3h[12:1],,,,,,,,,,7b,6b,5h[12:1],,,,,,,,,,4,3,2,,,,4,5,6,,,,3,2,1,,,,6,7,8h[12:1],,,,
{16}3,,2/5,,6,,7/4,,3b,,6,4,,3/5,,3,5,,4/6,,3,,4/5,,6,,3,5,,4/6,,3,3,,7,,4/6,,2,,3b/5b,,6,6,,3/6,,2,2,,3/7,,6,,2/6,,3,,5,2,,2/7,,,
{16}1-5[8:1],,2/6,,1,,7,,3b/8b,,7,7-4[8:1],,1,,2/7,2-5[8:1],,3,,2/7-3[8:1],,6,,1/7,,2,2,,1/8,,2,2-6[8:1],,8/3,,2/7-5[8:1],,8,,3/7,,4,4,,3/5,,6,4-8[8:1],,3/5,,2/4,,3,,7/1,,2,8,,1b/7b,,,,
{16},3,,5,,4,4/6h[16:3],,,3,,4h[8:1],,5h[8:1],,
{8}2-7[8:1],3,2/5-8[8:1],6,3-6[8:1]/5,4,1/3,8,,
{16}4,,7h[8:1],,3,7h[16:3],,,2,,8-4[8:1],,8,,8/2-6[8:1],,,,2/7,,,,6/7,,2/3,,6/7,,2h[8:1]/3h[8:1],,,,
{16}4/5,,2h[8:1]/7h[8:1],,,,3h[4:1],,6h[8:1],,,,7<4[8:1],,6,,3>8[8:1]/7,,2,,3/7,,,,
{16}8-4[8:1],,4-8[8:1],,8,,2-7[8:1],,,,2/6-3[8:1],,,,1/6,,1-5[8:1],,,,7/1,,7-5[8:1],,,,2v5[8:1]/7,,,,8/2,,8h[4:1],,,,,,,,
{16}2h[8:1],,7h[8:1],,3,3h[16:3],,,8,,1v6[8:1],,6-8[8:1],,1,,2,,2,,3,,4-1[8:1],,5-8[8:1],,4,,5,,,,
{16}8,,1,,7-4[8:1],2h[16:3],,,7,,3,,3,,
{24}8/7,6,5,4,,,1/2,3,4,5,,,
{16}7,,4V62[4:1],,
{48}7,6,5,,,,
{16}1h[8:1],,,,1b,,8b,,,,2h[4:1],,7h[8:1],,,,1-4[8:1],,4-1[8:1],,1-6[8:1],,6,,7h[8:1],,,,
{16}2,,3,,6,,5-8[8:1],,,,3-8[8:1]/5,,,,6/3,,7-4[8:1],,,,1/7,,2h[4:1],,,,6h[4:1],,,,5,,5h[4:1],,,,,,
{16}3/7,,3/7,2/6,,2h[8:1]/6h[8:1],,,2/6,,3/7,4/8,,2h[8:1]/6h[8:1],,,
{16}3,,5,4h[8:1],,6h[16:3],,,2,,8,1h[16:3],,,7,,
{16}6b,,3b,3b/7b,,1b/5b,,,2b,,7b,4b/6b,,5b,,,
{16}3,,6,2,,1h[8:1],,8h[8:1],,7h[8:1],,3h[8:1],,,
{16}3/6,,2/7,,1/8,1/8,,2/7,,,1/5,,2/6,3/7,,2/8,,1/7,,,
{16}2h[8:1],,8h[8:1],,4h[8:1],,6h[8:1],,3,3h[16:3],,,7h[8:1],,,,
{16}2/8,,2/8,,1/7,,2/5,,4/7,,3/8,,1/6,,8,,1,1,,8,8,8,1,,1,1/8,,,
{16}2,2,
{48}7,6,5,,,,
{16}3,3,,
{48}28,37,64,5,,,
{16},
{48}2,3,4,,,,
{16}6,6,,
{48}71,62,35,4,,,
{16},7h[8:1],,3,6h[16:3],,,3h[8:1],,6,,1,8h[16:3],,,
{16}2,2,7-4[16:1],,3,7,,,1h[16:1],,2-5[16:1],,6,2,,,8h[16:1],,
{16}3,,7,2,,6h[16:3],,,1-5[16:1],,2/8,1,,,
{16}6,4/6,4h[8:1],,7,7,,
{48}2,3,4h[48:7],,,,
{16},6,,2,
{48}6,7,8h[48:4],
{16},3h[16:3],,,
{48}7b,6,5,,,,
{16}2b,8h[16:3],,,1,,2/7,,3/6,4h[16:3],,,
{16}5,5,2,
{48}8,7,6,
{16},2h[8:1],,
{48}7,6,5h[48:7],,,,
{16},3,7h[8:1],,
{48}1,2,3h[48:4],,,,
{16}6h[16:3],,,
{48}3b,2,1h[48:8],,,,,,,,,,2b/7b,3/6,4/5,,,,,,,,,,
{16}3,,2/7,1/8,,,
{16}7,7,
{48}2,3,4,,,,
{16}6,6,,
{48}71,62,35,4,,,
{16},
{48}7,6,5,,,,
{16}3,3,,
{48}28,37,64,5,,,
{16},3,,7,7,,2h[16:3],,,6,,3,5h[16:3],,,
{16}4,4,7,,1,8,,
{48}1/8,2/7,3/6,,,,
{16},2,,7,1/8,,
{48}1/8,2/7,3/6,,,,
{16},3,,7,1,,8-4[16:1],,,8,,2,3,,,6,6,
{48}1,2,3h[48:13],,,,
{16}7,7,,8h[16:3],,,3,,6,2h[8:1],,
{48}7,6,5,,,,
{16},3b,,3b,7b/2,,1b>3[16:1]/8h[16:3],,,1,,6,5,,,
{16}4,4,7,
{48}1,2,3,
{16},7h[8:1],,
{48}2,3,4h[48:7],,,,
{16},6,2h[8:1],,
{48}8,7,6h[48:4],,,,
{16}3h[16:3],,,
{48}6b,7,8h[48:8],,,,,,,,,,7b/2b,6/3,5/4,,,,,,,,,,
{16}6,,7/2,8/1,,,
{16}2/7,1/8,
{48}7,6,5,,,,
{16}3,1/7,,
{48}28,37,64,5,,,
{16},
{48}2,3,4,,,,
{16}6,2/8,,
{48}71,62,35,4,,,
{16},1/7h[8:1],,3,2/6h[16:3],,,3h[8:1],,6,,1/8,8h[8:1],,,
{16}2,2/7,7-4[16:1],,3,7,,,1h[16:1],,2-5[16:1],,6,2,,,8h[16:1],,
{16}3/7,,7/2,2/6,,6h[16:3],,,1-5[16:1],,2/8,1,,,
{16}6,4/6,4h[8:1],,7,7,,
{48}2,3,4h[48:7],,,,
{16},6,,2,
{48}6,7,8h[48:4],
{16},3h[16:3],,,
{48}7b,6,5,,,,
{16}2b,8h[16:3],,,1,,2/7,,3/6,4h[16:3],,,
{16}5,5,2,
{48}8,7,6,
{16},2h[8:1],,
{48}7,6,5h[48:7],,,,
{16},3,7h[8:1],,
{48}1,2,3h[48:4],,,,
{16}6h[16:3],,,
{48}3b,2,1h[48:8],,,,,,,,,,2b/7b,3/6,4/5,,,,,,,,,,
{16}3,,2/7,1/8,,,
{16}3,3,5b,,4,4,,6h[16:3],,,3b,,6,5,,4h[16:3],,,6,,3/5,3,,4/5,,,3,,4,5h[16:3],,,
{16}3,3,6,,5,4,,
{48}7,6,5h[48:7],,,,
{16},3,,4,5,,
{48}2,3,4h[48:7],,,,
{16},6,,3/5,4,,6b,,,3/5,,3,3/5,,,6,6,
{48}1,2,3h[48:13],,,,
{16}7,7,,8h[16:3],,,3,,6,2h[8:1],,
{48}7,6,5,,,,
{16},3b,,3b,7b/2,,1b>3[16:1]/8h[16:3],,,1,,6,5,,,{16}4,4,7,
{48}1,2,3,
{16},7h[8:1],,
{48}2,3,4h[48:7],,,,
{16},6,2h[8:1],,
{48}8,7,6h[48:4],,,,
{16}3h[16:3],,,
{48}6b,7,8h[48:8],,,,,,,,,,7b/2b,6/3,5/4,,,,,,,,,,
{16}6,,7/2,8h[32:11]/1h[32:11],,,
