&title=悲報!ワイ!ニート!
&artist=shu
&first=-0.339
&des=starhytm
&lv_5=14
&des=starhytm
&inote_5=
(165){4},Ch[4:3],{32},,,,,,,,,,,,D6,A5,D5,A4,
{8}D4,,,7b/Cf,{16},2b/Cf,,,8b/Cf,,,3bh[16:17]/Cf,
,,,,6x,E6,,6x,{8}E6,{16}6x,E6,,6x,{8}E6,
{4}6x<3[4:5]*<1-3b[4:5],{16}4,5,4,5,4,5,4,5,4,5,4,5,
4,5,4,5,{4}4,{32},,,,,,E7,C,{4}B2/E3/B3,
8>1-4<6[8:1]*>1-4<6[8:1],8b,Cf,{16}6<2[16:3],5,,3,
,,{8}4V62[16:3],,1,8,7,1/2,4/7,
1/2,7/4,{4}1b/8b,6/3,{16}3>7[16:3],4,,6,
,,{8}6h[4:1],{16},,1,2,3,8/4,7,6,{8}5/2,{16}6,4,
{4}1b-5[8:1],1b,1,{16}3>7[16:3],4,,6,
,,{8}5V37[16:3],,8,1,2,8/7,5/2,
8/7,2/5,{4}8b/1b,1,{16}7<3[8:1],8,,,{4}7,
{16}1,8,1,8,1,8,1,8,{8}1-5[8:1],1,
{4}1b/8b,{8}3h[8:1],7,{16}6,5,,5,{8}4,7,
{16}3,4,,4,{8}5,2,{16}6,5,6,5,{8}6,1,
{4}2b/1b,{16}3,4,3,4,{8}3,8,{16}6,5,6,5,
{8}6,1,4/2,7/5,3/4,6/5,{4}7/8,
E2f/B1f/B2f/A2f/E1f,{8}6h[8:1],5,{16}3,4,,4,{8}5,2,
{16}6,5,,5,{8}4,7,{16}3,4,3,4,{8}3,8,
{4}7b/8b,{16}6,5,6,5,{8}6,1,{16}3,4,3,4,
{8}3,8h[8:1],4h[8:1],7h[8:1],3h[8:1],6h[8:1],{4}2b,
8x>3[16:3],{16}8,,,8x<5[16:3],,,{8}8,{16}8x,,,8>3[16:3],
,,{8}8,{16}8x,,,6,{8}6,1,{4}1,
{8}1x<6[16:3],1,{16}1,,,1x>4[16:3],,,{8}1,{16}1x,,,1s5[16:9],
,,{8}1,{4}1x,{8},,,1,
2q7p2q7[8:5]/3<6>3<6[8:5],1,,,,,,,4-7-5-3-8[8:5]*-6-3-1[8:5],
4,{4}4/5,{8},,,,6,
6,{4}6h[8:7],{8},3,{4}3h[8:3],
{8},,8/1,5/4,2/7,4/5,{4}Cf,
3b/6b,{32}4-7[8:1],3-8[32:3],2,1,8,7,6,5,{4}D4f/A4/A3,{8}6/3-8[8:1],4,
3/6-1[8:1],5,6/3-8[8:1],4,6/3,5,{4}6b/3b,
{8}6/1,2/5,{4}4-7[8:1]/3-8[8:1],{32}4b/3b,E5/E3/E4f,,,,,,,{16}6,5,6,5,
6V83V16[2:1],5,,,{4}3,{8}4>1[8:1],5,{4}4b<7[8:1],
4b,{32}4-7[8:1],3-8[32:3],2,1,8,7,6,5,{4}A4/A3/D4f,{8}3/6-1[8:1],{16}5,5,
{8}6/3-8[8:1],4,3/6-1[8:1],5,3/6,4,{4}3b/6b,
{8}6/1,5/2,4-7[8:1]/3-8[8:1],3/4,{4}4b/3b,{8}5-2[8:1]/6-1[8:1],6/5,
{4}6b/5b,1b-3[8:1]/8b-4[8:1],1b-5[8:1]/8b-6[8:1],1bv4[8:1]/8b-4[8:1],
,3V16[16:3],6V83[16:3],3V16[16:3],
6V83[16:3],{8}3>7[16:3],4,6<2[16:3],5,{16},,,,3-8[8:1],
4,3,4,{4}3b,{16}6-1[8:1],5,6,5,{4}6b,
E5/B5/B6/E7/B7/C/B2/E3/B3/B4,2-6[8:1],2b/1b-5[8:1],1b/8b-4[8:1],
8b/7b,6/3-8[8:1],3/6-1[8:1],6/3-8[8:1],
3/6-1[8:1],{8}6/3-8[8:1],4,3/6-1[8:1],5,6/3-8[8:1],4,
6/3,5,1b,{16}6,5,{8}6,6/5,8b,{16}3,4,
{8}3,4/3,{16}6,5,7,4,6,5,8,3,6,5,1,2,
{4}C,{32},,,,,,,,,,,,,,,,5,4,{4},,,{16},,,{32}6,
5,{4},,,{16},,,{32}3,
4,,,,,,,,,,,,,,,8x,
7x,6x,5x,4x,3x,2x,1x,8x-5[8:1]*>5[8:1],7x,6x,5x,4x,3x,2x,1x,{4}8bx,
{32}1bx/8bx,7bx/2bx,3bx/6bx,5bx/4bx,,,,,{4}7-1-6-2[8:7]/8-4<5qq3[8:7],{16},,,,,,,,,,,,,,,,Ch[16:9],
{32},,,,,,,,,,,,D4,A4,
D5,A5,{16}D6,,,5,4,6,3,5,4,7,2,5,4,6,3,
5,4,7,2,{4}5>1[4:1],1<5[4:1],5>1[4:1],
8-6[8:1],8b-4[8:1],{8}8,5>2[8:1],8,5-7[8:1],
,5,1-5[8:1],4<7[8:1],1,4,1,2/4,
1/8,7/5,{4}1b<6[8:1],{8}1-3[8:1],4,{16}1V75[16:3],5,{8}5,
{4}1,{16}8h[16:1],,,5h[16:1]/6h[16:1],,,{8}3h[16:1]/2h[16:1],{16},8h[16:1]/7h[16:1],,,{4}4/2h[4:1],
4-7[8:1],4b/3-8[8:1],3b/4-7[8:1],
3/4b,3h[16:3],{32}4,3,2,1,8,7,6,5,{8}4/3,1,
6/5,8,{16}2/6,3/7,{8}4/8>2[8:1],3,8<6[8:1],{16}4,5,{8}8,
{16}3,4,,,{4}Ch[4:3]/B6h[4:1]/B3h[2:1],,,7-3[8:1],
{16}7b<6V42V86>5V31V75b[8:9],Cf,,,,,,,,,,,,,,,,,,,{2}2p1q2[2:1],
{16},,,,A2f,,,6,{8}5-1[8:1],{24}3,4,{48},,{16}5b-7-1>5<1b[8:5],Cf,,,,,,,,,,,,,,,3,
3,4,4,
5,5,6,6,{4}1b-5[8:1],{8}1,4<7[8:1],1,4-2[8:1],
,4,8-4[8:1],5>2[8:1],8,5,7,5/3,
7,5/3,2,{16}6,5,{8}6,{16}3,4,{8}3,{16}7,5,
{8}6,{16}2,4,3,7,5,6,6,2,4,3,3,4,4,5,
{4}5,B7h[2:7]/B1h[2:7],{1},,,{4},,{8}5,
3,{4}5h[2:1]/3h[2:1],{8},,,,4/6,
6/4,{4}6h[4:3]/4h[4:3],{16},,,,,,,,,,,,2b/4b,
,,6b/8b,,,{8}3b/4b,{16},7b/6b,,,{4}5b/4b,
{32}2,3,4,5,6,7,8,1,2,3,4,5,6,7,8,1,2,3,4,5,6,7,8,1,
{1}2<7>2<7>2<7>2<7[8:13],
{4},,,,3b/6b,
{32}4-7[8:1],3-8[32:3],2,1,8,7,6,5,{4}D4f/A4/A3,{8}3/6-1[8:1],5,
6/3-8[8:1],4,3/6-1[8:1],5,3/6,4,{4}3b/6b,
{8}6/1,2/5,{4}4-7[8:1]/3-8[8:1],{32}4b/3b,E5/E3/E4f,,,,,,,{16}3,4,3,4,
3V16V83[2:1],4,,,{4}6,{8}5<8[8:1],4,{4}5b>2[8:1],
5b,{32}4-7[8:1],3-8[32:3],2,1,8,7,6,5,{4}A4/A3/D4f,{8}6/3-8[8:1],{16}4,4,
{8}3/6-1[8:1],5,6/3-8[8:1],4,6/3,5,{4}6b/3b,
{8}6/1,5/2,4-7[8:1]/3-8[8:1],3/4,{4}4b/3b,{8}5-2[8:1]/6-1[8:1],6/5,
{4}6b/5b,{8}6b/4b,{16}7,6,{8}5b/3b,{16}2,3,{4}7b/4bV25[16:3],
,6V83[16:3],3V16[16:3],6V83[16:3],
3V16[16:3],{8}6<2[16:3],5,3>7[16:3],4,{16},,,,6<2V86[8:3],
5,6,5,{8}6b,4,3V17>3[8:3],4,3b,5,
6,5,{4}1bv8[8:1]/8bv1[8:1],{2}1b-3[8:1]/8b-6[8:1],
{4},3/6-1[8:1],6/3-8[8:1],3/6-1[8:1],
6/3-8[8:1],{8}3/6-1[8:1],5,6/3-8[8:1],4,3/6-1[8:1],5,
3/6,4,8b,{16}3,4,{8}3,3/4,1b,{16}6,5,
{8}6,5/6,{16}3,4,2,5,3,4,1,6,3,4,8,7,
2,5,8,7h[16:29],{4}Cfh[1:1],,,,,,,1-5[8:1],
1b,{16}6,5,6,2,5,4,5,1,
6,5,6,2,5,4,5,1q2p1[16:9],6,5,6,1,{4}8x,
8x-4[8:1],8b,{16}3,5,5x,5,8,5,5x,5,
2,5,5x,5,7,5,5x,5,4,5,5x,5,{8}1,{16}6,4,
{4}1b-5[8:1],1b/8b-4[8:1],{8}8,5>2[8:1],8,5-7[8:1],
,5,1-5[8:1],4<7[8:1],1,4,2,3/5,
2,5/3,8b>3[8:1],{16}7,5,{8}8-6[8:1],6,8V24[16:3],{16}4,4,
{4}8b,{16}2,6,2,5,2,4,2,3,2,1,2,8,
2,7,2,6,{24}3,4,3,4,,,6,5,6,5,,,2,3,2,3,,,7,
6,7,6,,,3,4,5,6,7,8,1/4,5,6,7,8,1,2/5,6,7,8,1,2,
{4}3/6b-1[8:1],{8}4b/6b,3,4,3,4,5,
4-8[8:1],5,4b,5-1[8:1],6,5b,{4}6-2[8:1],
{1}6b<7>8-2>3<4<5b[4:3],
{4},{128}8b/4b,D8/D4,A7,A3,D7,D3,A6,A2,D6,D2,A5,A1f,
E
