&title=デミ空論
&artist=てらいと feat.重音テト
&first=0
&des=sh1nk1ngu
&wholebpm=135
&lv_4=10
&lv_5=13+
&des_4=TH1NK1NG
&des_5=sh1nk1ngu
&inote_4=(135)
{1},
{8}2/4,,5/7,,3/6,8bx,8bx,,
{4}2bx/5bhx[2:1],4,3h[2:1],4,
{4}6h[2:1],5,4h[2:1],5,
{4}6h[2:1],3,4h[2:1],6,
{4}5h[2:1],4,3h[4:1],4,
{4}7bx/2bhx[2:1],5,6h[2:1],5,
{4}3h[2:1],4,5h[2:1],4b,
{4}3h[2:1],6,5h[2:1],3,
{4}4hx[4:1],5x,A2/D3/A3,A6/D7/A7,
{4}2h[1:2],4,5,5,
{4}6,6,5,5,
{4}7h[1:2],5,4,4,
{4}3,3,4,D5,
{4}2h[1:2],4,5,5,
{4}6,6,7,8,
{4}7h[1:1],5,4,3,
{8}2,,A3/D4/A4,,A7/D8/A8,Ch[8:1],,,
{2}1-5-3[4:1],8-4-6[4:1],
{4}2,2/4,4/5,5/7,
{2}8-4v6[4:1],1-5v3[4:1],
{4}7,6/4,5/3,4/2,
{2}1-5-3>2[4:1],8-4-6<7[4:1],
{4}2,2/4,3/6,5/7,
{2}8-4V68[4:1],1-5V31[4:1],
{4}7x,6x/2x,5x/1x,7b/3b,
{4}5hx[8:1]/6hx[8:1],8hx[8:1]/1hx[8:1],4x/3x,4hx[8:1]/3hx[8:1],
{8}1hx[8:1]/8hx[8:1],,5x/6x,,4bx/5bx,3bx/6bx,2bx/7bx,,
{4}1-3[8:1],8-4[8:1],1-5[8:1],8-6b[8:1],
{8}1b-3b[8:1],,8bw4b[8:1],,8b,,A2/B2,A6/B6,
{4}1bxq5-2[4:1],1/6,8p4-7[4:1],8/3,
{4}2hx[8:1],1-5v2b[4:1]*-5v8b[4:1],,,
{4}1-5b[8:1],7-3b[8:1],2-6b[8:1],8-4b[8:1],
{8}1-6>3-8[16:7],,,,,5,5bx<5>5V71V35V31V75[4:15],,
{1}Cf,
{1},
{1},
{1},
{2}3h[1:2],A4,
{2}A5,A6,
{2}6h[1:2],A5,
{4}A4,,A3,C,
{4}2h[1:2],B2,4,B4,
{4}5,B5,7,B7,
{4}8h[1:1],C,4,C,
{8}1x,,A3/D3/E3/A2,,A6/D7/E7/A7,Ch[8:1],,,
{2}1-5>3>1[4:1],5-1<7<5[4:1],
{4}2,2/4,4/5,5/7,
{2}4/8-4<6<8[4:1],4-8>2>4[4:1],
{4}7,6/4,5/3,4/2,
{2}5/1-5-3>1[4:1],5-1-7<5[4:1],
{4}2,2/4,5/7,1/8,
{2}3/7-3>7[4:1],3-7<3[4:1],
{1}Cf,
{1}1v4v1[2:1]/5-8-5[2:1],
{1}7<7[4:3],
{1}6V85-2-4b[4:3],
{4}A8f,A6/D6/A5/A2/D2f/A1,A4/D4/A3/E4/A8/D8f/A7/E8,Cf,
{4}1bxq5V31[4:1],1/6,8p4V68[4:1],8/3,
{4}2hx[8:1],1-5v3-1b[4:1]*-5v7-1b[4:1]/5,,,
{8}2-7b[8:1],2,6-3b[8:1],6,1-4b[8:1],1,8-5b[8:1],8,
{4}4bx-7>2-5[16:7],,,A8/D1f/A1/E1,
{4}4hx[8:1]/3hx[8:1],1bh[8:1]/8bh[8:1],3b/7b,5hx[8:1]/6hx[8:1],
{8}8bh[8:1]/1bh[8:1],,2b/6b,,5b/4b,6b/3b,7b/2b,8bx/1bx,
{8}1bx-5b[8:1],1bx,8bx-6b[8:1],8bx,1bx-3b[8:1],1bx,8bx-4b[8:1],8bx,
{8}8b>1>2>3b[8:1]*<7<6>5b[8:1],,8bw4b[8:1],,8b,,A2f/E2/E3,A6f/E6/E7,
{4}1bx-5V38[4:1],1bx/6,5-1V74[4:1],5bx/2,
{4}2hx[8:1],1-5V31b[4:1]*-5V71b[4:1]/5,1,,
{16}2bx/6bx,,4x,,7bx/3bx,,5x,,4bx,5x,4bx,5x,3bx,6bx,2bx,7bx,
{4}1b-6>3-8b[16:7],,,A4/D5f/A5/E5,
{1}1b>1V35V71-4-7-2-5-8-3-6-1[2:7],
{1},
{1},
{4},,,A5f,
{1},
{1},
{1},
E
&inote_5=(135)
{1},
{16}Ch[16:3],,,1,1-5[8:1],,1-6b[8:1],,1-4b[8:1],,,,,,,,
{16}3bx/7bx,,4,,5/6,,7,,8-4[8:1]/5,,,,8x,,,2,
{16}6x,,5,,4/3,,2,,1-5[8:1]/4,,,6,1x,,,,
{16}2/6,,3,,4/5,,6,,7-3[8:1]/4,,,,7x,,,2,
{16}6x,,5,,4/3,,2,,1-5[8:1]/4,,,6,1x,,,,
{16}7bx/3bx,,8,,1/2,,3,,4-8[8:1]/1,,,,4x,,,6,
{16}2x,,1,,8/7,,6,,5-1[8:1]/8,,,2,5bx,,,,
{8}6/2,7,8/1,2,3-7[8:1]/8,,3x,,
{16}A5/D6/A6/A1/D2/A2,,,,A7/D8/A8/A3/D4/A4,,,,Ch[8:1],,E8/E1/E2,E7/E3,E6/E5/E4,,,,
{16}6h[8:1]/5,,5,,6h[8:1],,4,4,6h[8:1],,5,,6h[8:1],,3,,
{8}6h[8:1]/4,5,6h[8:1]/4,5,6h[8:1]/4,4,6h[8:1],3,
{16}3h[8:1]/5,,6,6,3h[8:1],,6,,3h[8:1]/5,,5,,3h[8:1],,4,,
{8}3h[8:1]/5,4,3h[8:1]/5,6,3h[8:1]/6,,B6/E6/B5,B2/E2/B1,
{16}6h[8:1]/5,,5,,6h[8:1],,4,4,6h[8:1],,5,,6h[8:1],,3,,
{16}6h[8:1]/4,,5,5,6h[8:1],,5,,6h[8:1]/4,,4,,6h[8:1],,3,,
{8}3h[8:1]/5,6,3h[8:1]/5,6,3h[8:1]/5,,3h[8:1],4,
{8}5,,6-2<1-5<6[2:1],,D5,D4,D3,,
{16}1>4p1[4:3],,,5hx[16:3],,,,5x,,6hx[16:3],,,,,,,
{16}8p5<8[4:3],,4hx[16:3],,,,,4x,,,3hx[8:1],,,3x,,,
{16}1q4>1[4:3],,,5hx[16:3],,,,5x,,6hx[16:3],,,,,,,
{16}8<5q8[4:3],,,,4hx[16:3],,,,4x,,3hx[8:1],,,,,,
{16}2>5p2[4:3],,,6hx[16:3],,,,6x,,7hx[8:1],,,7x,,8x,,
{16}1p6<1[4:3],,5hx[16:3],,,,5x,5x,,,4hx[8:1],,,4x,4x,,
{16}3p8>3[4:3],,,7hx[16:3],,,,7x,,6hx[8:1],,,6x,,5x,,
{16}E5f,,,,B1/B2/B3/B4/B5/B6/B7/B8/Ch[4:1],,,,E1f,,E8/B8/B1/E2,B2/B3/B6/B7,E4/B4/B5/E6,,,,
{8}1bV38[4:1]/5hb[8:1],,8-4b[8:1]/1,7,6h[8:1],,2V41[4:1]/6h[8:1],,
{8}1-5b[8:1]/2,8,7<4-8[8:3],,1bx-5b[8:1],2bx,1bx,,
{8}5x-2[8:1],5,7x-4[8:1],7,1x-6[8:1],1,3x-8[8:1],3,
{48}4b<7b[8:1],,,,,,,,,,,,4b>1b[8:1],D5,A5,D6,A6,D7,,,,,,,4b-8-4[4:1]*-8[8:1],D4,A3,D3,A2,D2,,,,,,,1bhx[8:1],,,,,,,,,,,,
{8}3bV52[4:1],,2-6b[8:1]/3,1,8<5-1[4:1],,1-5<8[4:1],2,
{8}4qq1[16:5],3,4,6,5w1[8:1],,5,,
{8}2x-5[8:1],2,8x-3[8:1],8,6x-1[8:1],6,4x,4,
{16}1bxV75V31b[2:1],5x,1x,5x,1,,,,,,Chf[8:1],,,,,,
{24}3bhx[8:1]/7bhx[8:1],,,,,,2,,2,4,,4,3,,3,5,,5h[6:1],4h[8:1],,,,,,
{24}6hx[8:1],,,3hx[8:1],,,7,,7,5,,5,6,,6,4,,4h[8:1],5h[12:1],,,A6/D7/A7,,,
{24}A8/D1/A1,,,A2/D3/A3,,,6,,6,8,,8,7,,7,1,,1h[6:1],8h[8:1],,,,,,
{24}2hx[8:1],,,7hx[8:1],,,3,,1,2,,8,1-5[8:1],,,,,,,,,,,,
{8}7qq4pp7[2:3],,,1,2,2,,3,
{8}3h[8:1],,2h[8:1],,1,1,,3,
{8}3qq8pp3[2:3],,6h[8:1],,5,5,,4,
{8}4h[8:1],,5h[8:1],,6,Ch[8:1],,,
{8}6h[8:1]/5,5,6h[8:1],4,7h[8:1],5,7h[8:1],3,
{8}2h[8:1]/5,4,2h[8:1],4,3h[8:1]/5,5,3h[8:1],6,
{8}6h[8:1]/4,3,3h[8:1]/5,6,5h[8:1]/4,,4h[8:1],5,
{8}6,,3-7>8-4>3[2:1],,D5,D6,D7,,
{16}8<5q8[4:3],,,4hx[16:3],,,,4x,,3hx[16:3],,,,,,,
{16}1q4>1[4:3],,5hx[16:3],,,,,5x,,,6hx[8:1],,,6x,,,
{16}8p5<8[4:3],,,4hx[16:3],,,,4x,,3hx[16:3],,,,,,,
{16}1>4p1[4:3],,,,5hx[16:3],,,,5x,,6hx[8:1],,,,,,
{16}7<4q7[4:3],,,3hx[16:3],,,,3x,,2hx[8:1],,,2x,,1x,,
{16}8q3>8[4:3],,4hx[16:3],,,,4x,4x,,,5hx[8:1],,,5x,5x,,
{16}6q1<6[4:3],,,2hx[16:3],,,,2x,,3hx[8:1],,,3x,,4x,,
{96}E5f,,,,,,,,,,,,,,,,,,,,,,,,,,,,,,,,,,,,Cf,,,,,,,,,,,,,,,,,,E1f,,,,,,,,,,,,E2f,,,,,,E8f,,,,B2f,,,,B7f,,,,B3f,,,B6f,,,E4f,,,E6f,,,
{16}E5f,,,,,,3x/5x,,,4x/6x,,,4x/6x,,,,
{16}5x/7x,,,5x/7x,,,,,,4x/8x,,,4x/8x,,,,
{16}3x/7x,,,3x/7x,,,,,,2x/6x,,,2x/6x,,,,
{48}1b<6b[8:1]/5b,,,,,,,,,,,,1b>4b[8:1]/5b,D1,A8,D8,A7,D7,,,,,,,1bw5b[16:1]/5b,D2,A2,D3,A3,D4,,,,,,,A1f,,,,,,,,,,,,
{8}3bV52[4:1],,2-6b[8:1]/3,1,8<5-1[4:1],,1-5<8[4:1],2,
{8}4qq1[16:5],3,4,6,5w1[8:1],,5,,
{8}2x-5[8:1],2,2x/8x-3[8:1],8,6x-1[8:1],6,6x/4x,4,
{16}1bxV75V31b[2:1],5x,1x,5x,1,,4,,A8,A7,A6,,A5f,,,,
{16}7x-4b[8:1],,8,8,3bx-6[8:1]/7bx-2[8:1],,2,,3b/7b,,,,2x-7b[8:1],,3,3,
{8}6bx-1[8:1]/2bx-5[8:1],5,6b/2b,,4b>1b[8:1],8bx<5b[8:1],4b,8bx,
{8}3b-8b[8:1],3,3b/5x-2b[8:1],5,5b/7x-4b[8:1],7,7b/1x-6[8:1],1,
{48}1b/2b>5b[8:1],,,,,,,,,,,,2b<7b[8:1]/6b,D3f,A3,D4,A4,D5,,,,,,,6b/2b-6-2[4:1]*-6[8:1],D2f,A1,D1,A8,D8,,,,,,,5bhx[8:1],,,,,,,,,,,,
{8}7bV58[4:1],,8-4b[8:1]/7,1,2>5-1[4:1],,1-5>2b[4:1],7,
{8}6pp1[16:5],7,6,3,4w8b[8:1],,4b,,
{8}7b-4b[8:1],8,7b/1x-6b[8:1],2,1b/3b-8b[8:1],4b,3b/5b,6b,
{16}7bV53V17b[2:1],3x,5x,1x,7x,,,,,,,,A3f,,,,
{4}5V74[4:1],5,3V14[4:1],3,
{4}6V85[4:1],6,4V25[4:1],4,
{4}7-3[8:1],7/2-8-5[4:1],2/7,6,
{8}5/4<1[4:1],,1<4[4:1],,4hx[384:1],Chf[8:1],,,
{1},
{1},
{1},
E
