&title=我赚钱了!
&artist=玛尼·梅克尔
&first=0.345
&lv_5=14
&des_5=wangzai
&inote_5=
(240){4}1,5,1,5,
,2,,6,
3,7,3,7,
Cfh[4:3],,,1<1[2:3]/8-6-4-2-8[2:3],
,,{2}A6,
{4},A2,,2<1-3>2-8-4-2-7-5-2-6[4:5]/7>8-6<7-1-5-7-2-4-7-3[4:5],
,,,,,A3,
A6,3h[16:29]/6-1-5-2[8:13],
,,,,,,,6h[16:23]/3-1-4-7-5[4:5],
,,,,,,6,
8v5[2:1]/2v5[2:1],
,8-5>4[2:1],,,8-4-6-2>3[4:1],
{8},,,,1,D2,
2,D3,3,D4,4,D5,5,D6,
6,D7,7,D8,{4}8,8v5v3[4:3]/3<3[4:3],
,,,,3v1[8:3]`7v5[8:3],
A7`E5`D5`A4`D4`A3`B3`A5`B5`B4`A8`E8`B8`E1`D1`A1`B1`C`B7`D8`E4,{8},,B1,B7,
B3,B5,B8,B6,B4,B2,{4}Cfh[4:3],
,,,2<2[2:3]/1-7-5-3-1[2:3],
,,,,,,,6p4[4:5],
5p3[1:1],4p2[4:3],,,,E3,
{2}E4,
{4}6h[1:1],D7,A7,D8,
5h[1:1],B5,C,B1,
4h[1:1],D4,A3,D3,
,E5,{2}E6,
{16}7<6-8-5-1[4:3],2p4[16:11],,,,,,,,,,,,,,,,,,,{4}2-7<6-3>2[2:3],
{2}E8/B8/B1/E2/B2/B3/E4/B4/B5/E6/B6/B7,
{1}Cfh[1:1],
{4},B8,B1,8b,
{1}8h[1:1],
1h[1:1],
{4}2,3,4/5,6,
7,B8,B1,5b,
5h[1:1]`A6,E6,E4,A3,
D7/E7/E3/D3/B6/B3`4h[1:1],A7/B7/C/B2/A2,D8/E8/B8/B1/E2/D2,A8/D1/E1/A1,
3,2,8/1,7,
6,B5,B4,8b,
6p3[4:3],E6,B4,E6,
7pp2[4:3],B7,B2,B7,
3,3,5/4,6,
6,B8,B1,8xqq5[4:3],
,E2/B2/E3/B3/E4/D4/A3/D3/B4,E2/B2/E3/B3/E4/D4/A3/D3/B4,E2/B2/E3/B3/E4/D4/A3/D3/B4,
{1}2x<2[4:3]/1x-7-5-3-1[4:3],
{2}Cfh[1:1],{4}E1f,E5f,
,B8,B1,6bx,
{1}6x>5p5>4q4>3p3-6p6[4:5],
{2},Cf,
Cfh[1:1],{4}E7f,E3f,
,B8,B1,{8}1,2,
3,4,5,6,7,8,1,2,
3,4,5,6,7,8,1,2,
3,4,5,6,7,8,1,2,
{2}3,{4}8b,8b,
{1}7<6-3>2-7[1:3],
8<7-2-8[1:2],
A7/B7/C/B3/A3/A2/B2/B6/A6,
{4},B8,{2}B1,
{4}D7/B8/B1/E8/B7/B2/B3/E4/B4/E5/D5/B5/B6/E7/A6/D6/E6/A5/E1/Cf,1,2,1,
E2/B1/A2/E3/B3/D3/A3/E4/D4/A4/D2/B2f/C,7,6,7,
E7f/D7/B7/C/B6/E6/B5/B4/A4/E5/D5/A5/D6/A6,1,2,3,
4,5,D8/C/E3/B2/D3/A2/E2/B3/B1/B8/E1/D2/A1/D1/A8/E8/A3,1b,
{1}1h[1:1],
2h[1:1],
A7/D7/A6/D6/A5/D5/A4/E5/B5/E6/B6/E7f/E8/B7/C,
{4},B8,{2}B1,
{8},,,,5,,,6,
,5,{16},,,,6,,,,,,,5,
,,,,,,{8}6,,5b,,6,
,,,5,,,{4}7b,
7b,7b,7b,7b,
E
