&title=Sacrifice
&artist=逢瀬アキラ
&first=0
&des=Voyagers In life, unlike chess, the game continues after checkmate. ——Isaac Asimov『Fantastic Voyage II』
&des_5=Voyagers
&lv_5=13+
&inote_5=(210){4},,,,{2}5z1[1:3],
4h[4:1],
6h[4:1],3h[4:1],
7h[4:1],2h[4:1],
8h[4:1],{8}1b/2b,1b/2b,{4}2b>5[8:1]/1b<6[8:1],
{2}D2f,{8}7,7-3[8:1],,1,
,,{4}2/4,{8}3,3<6[8:1],,1,
,,{4}6/7,{8}5,5p4[2:1],,1,
,2,,3,,4/5,{4}6/3,
{16}4,5,4,5,4,5,4,5,4,5,4,5,4,5,4,5,
3x,6x,4x,5x,3x,6x,4x,5x,3x,6x,4x,5x,3x,6x,4x,5x,
{1}3xq6[4:7],
,3>6[2:1]*-1<8-6[2:1],
{16}5/4,6,7,8,1/2,3,4,5,{8}6/7,7-4[8:1],5,7b,
,,{4}5/3,{8}2,2-6[8:1],4,2,
,,{4}7/5,{8}6,6v3[8:1],5,6,
,,{4}5/4,{8}2,2<7[8:1],4,2,
,6,4/5,3,2,2-5[8:1],4,2b,
,,{4}4/6,{8}7,7-3[8:1],5,7,
,,{4}2/4,{8}3,3v6[8:1],4,3,
,,{4}4/5,{8}7,7>2[8:1],5,7,
,3,4/5,6-3[8:1],,6b/3b,,,{4}3,
{8}3,4,{4}3,3,
{8}3<6[2:1],4,{4}3,3,{8}3,3,
{4}7,{8}7,5,{4}7,7,
{8}7p2[2:1],5,{4}7,7,{8}7,7,
{4}1,{8}1,4,{4}1,1,
{8}1v8[2:1],4,{4}1,1,{8}1,1,
{4}7h[4:1],{8}8,6h[4:1],,7,{4}5h[4:1],
{8}4,6,3,7,2-5[8:1],8,,,{4}6,
6/4,{8}6,5,6,4,
{4}6,{8}6,5,6,3,{4}6,
2/4,2/5,{8}2,4,2,6,
{4}2,{8}2,4,2,7,{4}2,
8/3,8/1V35[4:1],8,{8}8,6,
{4}8,8/5-2[8:1],5/8-5[8:1],8/3,
6/4-2<1[8:1],{8}7,7-5>4[8:1],,2,{4}2-8<7[8:1],
{8}5,5-3>2[8:1],,8,{4}8-4[8:1],4,
3/5,{8}2h[8:1],1h[8:1],2h[8:1],1h[8:1],{4}3h[4:1],
5,{8}7h[8:1],8h[8:1],7h[8:1],8h[8:1],{4}6h[4:1],
4h[4:7],E2,E7,E4,
B8,B2,B6,B4,
5/3,{8}6h[8:1],8h[8:1],6h[8:1],8h[8:1],{4}5h[4:1],
4,{8}3h[8:1],1h[8:1],3h[8:1],1h[8:1],{4}4h[4:1],
5h[4:7],E8,E3,E6,
B1,B7,B3,B5,
4/6,{8}3h[8:1],2h[8:1],3h[8:1],2h[8:1],{4}4h[4:1],
5,{8}6h[8:1],7h[8:1],6h[8:1],7h[8:1],{4}5h[4:1],
3h[4:1],{8}4,1h[4:1],,8,{4}4h[4:1],
{8}5,8h[4:1],,7,{4}5-2[8:1],6,
{8}8,3,7,4,{4}6V47[4:1],1,
2,8/3V51[4:1],7,6,
{8}2-5[8:1],2,,7-2[8:1],{4}7,{8}4-7[8:1],4,
,1-4[8:1],{4}1,6p3[8:3],7,
{8}8h[8:3],,,7h[8:3],,,{4}6h[8:3],
{8},5h[8:3],,,{2}4h[2:1],
{16}2,1,8,7,6,5,4,3,1/2,8,7,6,5,4,{8}3z7b[4:1]/2s6b[4:1],
,,,,,C,,,{4}7/1-6[8:1],
1/6-4-2[4:1],{8}8,7,,1/6V48[4:1],
,2,{4}3,{8}7/1,6,5,4/2h[4:1],
,8,3,6,5,7<8[8:3],4h[2:1],7,
,,,,2,5,4,7,
{16}1h[16:3],,,6h[16:3],,,{8}4h[8:1],{16}8h[16:3],,,5h[16:3],,,{8}3h[8:1],
{16}2h[16:3],,,1h[16:3],,,{8}4h[8:1],{16}6h[16:3],,,5h[16:3],,,{8}8h[8:1],
{4}1-6[8:1],{8}7,8-4[8:1],,3,{4}2-6[8:1],
{8}6,7-4[8:1],,4,{4}3bv8b[8:1],5,
1/7-3[8:1],7/3V58[4:1],{8}1,2,,1/3V51[4:1],
,7,{4}6,{8}2/8,3,4,5/7h[4:1],
,1,6,3,4,2>1[8:3],5h[2:1],2,
,,,,6,3,4,1,
{16}7h[16:3],,,8h[16:3],,,{8}5h[8:1],{16}3h[16:3],,,4h[16:3],,,{8}1,
{4}8-5[8:1]/7-5[8:1],7-3[8:1]/8-3[8:1],{2}7<8[2:1]/8p7[2:1],
{8},,,,6/1,5,{4}2/4,
{8}3/8,4,{4}5/7,{8}4/6,7,3/8,2,
{16}1h[16:3],,,2h[16:3],,,{8}7h[8:1],{16}5h[16:3],,,6h[16:3],,,{8}3,
{4}1-4[8:1]/2-4[8:1],2-6[8:1]/1-6[8:1],{8}2/1>6b[4:1],,,8b,
,,{4}5/7,{8}8,8-4[8:1],4,8,
,,{4}3/5,{8}2,2v5[8:1],4,2,
,,{4}4/6,{8}7,7q3[8:1],5,7,
,4,6/5,7,8,8-5[8:1],4,8b,
,,{4}4/2,{8}1,1-5[8:1],5,1,
,,{4}6/4,{8}7,7v4[8:1],5,7,
,,{4}5/3,{8}2,2p6[8:1],4,2,
,5,4/3,2,6,{16}4,5,{8}3,7,
,1-3[8:1],8-6[8:1],1-5[8:1],8-4[8:1],1>4[8:1],8,1s5b[4:1]*<5[4:1],
E
