&title=epitaxy
&artist=Camellia
&first=-0.8
&des=「overgrown crystalline」
&lv_5=14
&des_5=「overgrown crystalline」
&inote_5=
(183){4},{8},,,,,,6h[8:7],
{16},,,,,,,,,,,,3,4h[16:9],
,,,,,,,,{4}5,5/3h[4:7],
,,,,,,7,
1/8h[4:7],
,,,,,,2,
3/6,
{8}4/5h[8:3],,,6h[8:3],,,{4}7h[4:5],
,,,,{1}1>8[4:5],
{4},,2,5<4[2:3],
,,6,7,
8,1,2,3,
,,5,2h[4:1],
,7,{6}3,{12},,1,8,
{1}1-5[1:1],
{4},,5/4,8-4[8:1]/1>8[1:1],
{1}8b/1b,
{8},,7/1,2,3-7[8:1]/4<3[4:5],5,{4}3b/4b,
{8},,,,,,,,,,6/4,
3,7/2-6[8:1]*<3[4:5],8,{4}2b,
{8},,,,,,,,,,5/4,
6,7/1-4[8:1],2,{4}1/8-4[8:1],
{8}8b/3h[4:1],{32},,,,,,,,1b/7h[4:1],2,3,4,,,,,,,,,7b/1h[4:3],6,5,4,{4},,{16},,{4}5,
2/6q1[1:1],
{1}6h[1:1],
{8},,2/7,6,7/2q5[4:5],3,{4}2h[4:5],
{8},,,,,,,,,,2/6,
5,7z3[4:5]/3-7[4:5],4,{4}7/3,
{8},,,,,,,,,,4/5,
6,7/1,2,{4}3h[1:1]/8p5[4:5],
,,,,{1}5>8[4:3],
4>4[2:7]*<4[2:7],
,,,{8}7/1,
7,7,7,7/3,3,3,3,
3/5,6,7/1,2,3/6,7,8/4,3,
{16}2,8,2,8,1,7,1,7,1,8,2,7,3>4[4:3]*-7[8:1],6,4,5,
,,,,{4}3h[8:1],{2}1-5[8:1],
{8}8-4[8:1],3,8,1h[4:1],,3,2,4,
3-1[8:1],5,7<4[8:1],8,{4}3-6[8:1]/7-2[8:1],7/3,
{8}1,5>2[8:1],8,7h[4:1],,1,5,2,
6-8[8:1],4,6-4[8:1],3,{4}6-1[8:1]/2-5[8:1],6/2,
{8}8<5[8:1],4,8,2h[4:1],,4,2,6,
1-6[8:1],7,5,4,{4}1-4[8:1]/5-8[8:1],5/1,
{8}7,3<6[8:1],1,8h[4:1],,2,6,3,
7<5[8:1],3-1[8:1],7,3,{2}8z4[8:1],
{8}1-5[8:1],6,1,8h[4:1],,6,7,5,
6-8[8:1],4,2>5[8:1],1,{4}6-3[8:1]/2-7[8:1],2/6,
{8}8,4<7[8:1],1,2h[4:1],,8,{16}4,7,4,7,
{8}3-6[8:1],2/6,3,8,{4}1w5[8:1],1b,
7-4[8:1]/3-8[8:1],7b/3b,{8}1,1,1/5,{16}5,4,
{8}6,6,2/6,3,5/4,6,8/7,{16}1,8,
{8}2,2,2/6,6,3/5h[8:1],3,6/4h[8:1],6,
{16}3,4,2,5,1-5[8:1],8,2,7,{2}1b,
{16}6h[16:1]/4h[16:1],,,6/4,,,1,6,8h[16:1]/7h[16:1],,,7/8,,,5,3,
6h[16:1]/2h[16:1],,,2/6,,,,,{4}2-5[8:1]/6-1[8:1],6/2<4[4:1],
,3h[4:1],{8}4-7[8:1],1-5[8:1],4,1,
8<5[8:1],8,8>3[8:1],8,8-4[8:1],8,{4}8,
{16}2h[16:1]/6h[16:1],,,6/2,,,5,2,3h[16:1]/4h[16:1],,,4/3,,,2,6,
7h[16:1]/1h[16:1],,,7/1,,,{8}2-6[8:1],6<4[4:1],2,{4}5b,
{8},6h[16:1],6,8h[16:1],8,4h[16:1],4,2,
7-4[8:1],4-7[8:1],7-1[8:1],1-5[8:1],2,3,{4}4b,
2h[8:1],6h[8:1],{16}3h[16:1]/5h[16:1],,,3/5,,,3,8,
1h[16:1]/2h[16:1],,,2/1,,,6,4,3h[16:1]/7h[16:1],,,7/3,,,{8}6>3[8:1],
{2}6h[4:1],{8}5-2[8:1],8-4[8:1],5,8,
1>4[8:1],1,1<6[8:1],1,1-5[8:1],1,{4}1,
{16}8h[16:1]/3h[16:1],,,3/8,,,7,4,6h[16:1]/5h[16:1],,,5/6,,,3,7,
2h[16:1]/8h[16:1],,,8h[16:1]/2h[16:1],,,{8}3h[16:1]/4h[16:1],{16},5h[16:1]/7h[16:1],,,{4}8/1,
{16}2h[16:1]/6h[16:1],,,2h[16:1]/6h[16:1],,,3,8,7h[16:1]/4h[16:1],,,7h[16:1]/4h[16:1],,,8,3,
1h[16:1]/2h[16:1],,,3h[16:1]/4h[16:1],,,{8}5h[16:1]/6h[16:1],{4}8/7,1>7[1:1]/2V46[16:13],
{8},,,,,,,,,,6,
6,4,4,{4}5z1[1:1]/3s7[1:1],
{8},,,,,,,,,,7,
7,1,1,{4}2q3[1:1]/8<3[1:1],
{8},,,,,,,,,,2,
2,6,6,{4}7/3,
{8}8/4h[8:3],,,3h[8:3],{16},,,,2,1,8,7,
4,5,6,7,4,3,2,1,7,6,5,4,3<2[1:1],2,1,8,
{1}7/3p2[4:3],
{8},,6/4,3,8-4[8:1]/2>1[4:5],7,{4}8b/2b,
,,,,3,
{8}4/5,7,5-8[8:1]/4p1[1:1],2,{4}5b/4,
{8}7,7,6,6,5,5,4,4,
3,3,2,2,1,1,8,8,
{16}3,4,3,5,1,8,1,7,2,4,3,4,2,8,1,8,
{32}2,3,4,5,6,7,8,1,2,3,4,5,6,7,8,1,2,3,4,5,6,7,8,1,2,3,4,5,6,7,8,1,
{1}2/6h[1:2],
{16},,,,,,,,,,,,,,,,4,
6,4,6,8,7,8,7,3,5,3,5,1,8,1,8,
{32}2,3,4,5,6,7,8,1,{4}2v5[8:1]/6v1[8:1],2/6,{8}4h[16:1],8,
2b/6b,{16}1,8,{8}2h[8:1],{16}5,4,{8}6h[8:1],{16}8,7,1,8,2,1,
{8}3h[8:1],{16}6,5,{8}7h[8:1],{16}1,8,{24}2,3,4,8,7,6,{8}1h[8:1],{16}7,8,
{8}6h[8:1],{16}3,4,{8}2h[8:1],{16}8,1,{8}7h[8:1],{16}5,6,4,5,3,4,
{8}2h[8:1],{16}7,8,{8}6h[8:1],{16}2,1,{24}3,4,5,8,7,6,{4}5/1b,
{16}6-1[8:1],5,7,2,{8}6b,{16}4,4,{8}8h[8:1],{16}5,6,4,5,3,4,
{8}2h[8:1],{16}5,4,{8}6h[8:1],{16}8,7,{24}1,2,3,7,6,5,2,3,4,8,7,6,
{8}5/1b,{16}3,4,{8}2h[8:1],{16}5,4,{8}6h[8:1],{16}8,7,1,8,2,1,
{24}3,4,5,1,8,7,2<4[4:1],3,4,8,7,6,{4}2,8b,
{8}7b/3b,{16}8,1,{8}7h[8:1],{16}4,5,{8}3h[8:1],{16}1,2,8>5[4:1],1,7,8,
{2}6,{4}8-4[8:1],{8}8b/1,3,
2h[8:1],{16}6,5,{8}7h[8:1],{16}1,8,2,3,4,8,7,6,2,3,
{4}4/8<5[8:1],1,2w6[8:1],2b,
{8}4/8,4/8,{16}6,4,8,1,{8}7h[8:1],{16}4,5,{8}3h[8:1],7,
4/8,4/8,{16}3,5,1,8,{24}2,3,4,8,7,6,1,2,3,7,6,5,
{8}8/4,8,1/5,5,{16}2,6,3,7,4V28[8:3],8V64[16:5],5,1,
,,,,,,,,{4}1-4[8:1]/5-8[8:1],5b/1b,
{8}6/2,4,7/3,5,6/2,4,7/3,5,
{4}8/1>4[8:1],{8}1/7-3[8:1],8,7/5-1[8:1],4,{4}5b/8,
{8}6/2,8,7/3,1,6/2,8,7/3,1,
{4}5/4-1[8:1],{8}2/4-7[8:1],3,6/4-8[8:1],5,{4}4b/2,
{8}2/1,3,4/5,6,7/8,6,5/4,3,
{4}2/1-5[8:1],{8}1/8-4[8:1],6,8/1-5[8:1],3,{4}1/7V53[4:1],
{8}7b,8V64[4:1],1,8b,1<2[8:5],2,{4}1b,
{8},,1,8,{16}7,6,5,4,1,2,3,4,
{8}5/7,8,6/4,3,7/5,8,6/4,3,
{4}1/2-5[8:1],{8}2/1-5[8:1],1,1/8-5[8:1],8,{4}8b/3q5[8:3],
3b/6,{8}8,7,6/4,3,2/7<4[8:1],6,
{4}7/1,{16}3,3,{8}3,3s7[4:1],4/2,{4}3b,
{8}5,5,1/5,1,1/7,7,7/3,3,
3/8,7,6/1-4[8:1],2,1/7-4[8:1],8,{4}7/2,
{16}3,5,4,6,5,7,4,8,3,7,2,6,1,5,8,4,
3/7,8/4,1/5,2/6,7,8,1,2,7/3,8/4,1/5,2/6,{4}3/7w3[4:7]*-3[4:7],
E
