&title=比翼の羽根 Ex ver.
&artist=eufonius
&first=0
&des=luvlily
&lv_5=13
&inote_5=(148){1},
{16}3,,,,,,5,,,,,,,,2,,
{16},,,,,,7,,,,,,,,,,
{16}2,,1,,7,,6h[4:1],,,,2,,3,,4>7[1:1],,
{16},,,,,,,,,,,,,,6,5,
{16}4h[1:1],,,,,,,,,,,,,,,,
{16}5<5[8:6],,,,,,,,,,,,,,,,
{16}7qq6[8:5],,,,,,,,,,,,,,1^7[4:1],,
{16}1pp2[8:5],,,,,,,,,,,,,,5^3[4:1],,
{16}5pp6[8:5],,,,,,,,,,,,,,2^4[4:1],,
{16}2qq1[8:5],,,,,,,,,,,,,,6pp8[4:1],,
{16}6p3[4:3],,,,,,,,,,,,,,2qq8[4:1],,
{16}2q5[4:3],,,,,,,,,,,,,,8,,
{16}8qq6[16:3],,,,3,,3qq1[16:3],,,,6,,,,5,,
{16}1b/7b,,,,2,,3b/5b,,,,8,,4b/7b,,,,
{16}3>7[32:11]/5,,,,5,,,,5,,,,5,,1,2,
{16}3/7>3[32:11],,,,4,,,,4,,,,4,,1,8,
{16}2>6[32:11]/7,,,,8,,,,8,,,,8,,4,3,
{16}2/5<1[32:11],,,,2,,,,2,,,,2,,4,5,
{16}6/8pp3[32:14],,,,4,,,,5,,,,6,,74,36,
{16}2/5pp8[32:14],,,,1,,,,2,,,,3,,28,37,
{16}4-8[8:1]/6,,,,4,,6-2[8:1],,,,6,,8^3[8:1]*^5[8:1],,,,
{16}8-4[8:1],,,,8w4[8:1],,,,8,,,,26,,,,
{16}7-5[8:1],,5-1[8:1],,7,,3h[4:1],,,,8,,7,,6^1[8:1]/3,,
{16},,5,,4,,3,,2^5[8:1],1,8,7,6,,,,
{16}6,,75,,48,,3^8[8:1]/7^4[8:1],,,,3bpp5[8:1]/7bpp1[8:1],,,,,,
{16},,8h[8:1],,6h[8:1],,4h[8:1],,2-6[8:1],,8,,2,,4,,
{16},,18,,27,,46,,35,,24,,3,2,1,8,
{16}7,6,5,4,3,2,1,1,1,1,1,1,1,1,1w5[8:3],,
{16},,,,,,,,,,,,1,2,3,4,
{16}5V38[4:1]/6,,,,5,,7V53[16:3],,,,7,,8,7,6,5,
{16}4V61[4:1],,,,4,,8V24[16:3],,,,8,,7,8,1,2,
{16}3V16[4:1],,,,37,,5-1[8:1]*-8[8:1],,,,5,,,,2-6[8:1],,
{16}6-2[8:1],,2,,7,,8w4[8:1],,,,8,,,,2V85[4:1]/6,,
{16},,2,,6V41[4:1],,,,6,,2,,3,,4/8-4[8:1],,
{16},,3-7[8:1]/8,,,,6-2[8:1]/3,,,,1-5[8:1]/6,,,,7/1,,
{16}6V41[4:1],,,,6,,1>5[16:3]*<5[16:3],,,,1,,,,,,
{16}2b/6b,,3b/7b,,4b/8b,,5bV38[4:1]/1b,,,,5,,8,7,6,5,
{16}4V61[4:1]/8,,,,4,,2V46[16:3],,,,2,,1,2,3,4,
{16}5V38[4:1],,,,5,,1V73[4:1],,,,1,,2,1,8,7,
{16}6V48[4:1],,,,26,,8w4[8:1],,,,8,,,,2v7[8:1],,
{16}6V42[16:3],,2,,6,,1V75[8:1]*^6[8:1],,,,1V35[8:1]*^4[8:1],,,,1-5[8:1],,
{16},,1,,6^1[8:1]*^3[8:1],,,,6,,,,2,,38,,
{16}2b/6b,,,,15,26,3b/7b,,,,48,37,26,15,4b/8b-4[8:1],,
{16},,18,,2,,4,,6-2[8:1],,8,,26,,4,,
{16}8,7,6,5,4,3,2-6[8:1],,,,2/8qq2[2:1]*>4[32:6],,,,8b,,
{16},,,,,,,,,,35,,35,,2V83[8:3]/6V47[8:3],,
{16},,,,,,,,,,,,17,,26,,
{16}3V17[16:3],,7,,3,,5,,6V47[16:3],,8,,6,,2,,
{16}4V61[16:3],,1,,4,,7,,5V37[16:3],,7,,5,,2,,
{16}1-4[8:1],,8,,6-1[8:1],,7,,3^6[8:1],,2,,8v3[8:1],,1,,
{16}4>8[8:1],,5,,7p4[32:10],,6,,,,8,,1,,2,,
{16}3bV16[32:6]/5b,,,,37,,5V37[32:6],,,,58,,2V48[32:6],,,,
{16}12,,,,7,6,5v7[8:1]/1v3[8:1],,,,15,,,,2b/6b,,
{16},,15,,15,,78,1,2,3,4h[8:1],,3V57[32:7],2,1,8,
{16}7,,,,3,4,5,6,2V86[32:7],3,4,5,26,,,,
{16}1b,,,,8V24[32:7]/1,7,6,5,4,,6,7,8,1,2,3,
{16}4V61[32:10]/8V63[32:10],,,,,,,,,,,,2,13,48,75,
{16}6,,,,1,2,34,5,6,7,8h[8:1],,7V15[32:8],6,5,4,
{16}3,,,,7,8,1,2,6V48[32:8],7,8,1,62,,,,
{16}5b,,,,4V61[64:15]/5,3,2,1,8,,2,3,4,5,6,7,
{16}8-4[8:1]/4-8[8:1],,,,4V27[4:1]/8V63[4:1],,,,,,,,,,,,
{16}3bV57[16:3],,,,,,8bV24[16:3],,,,,,5,,5bpp5[4:7]*qq5[4:7],,
{16},,,,,,,,,,,,,,,,
{16},,,,,,,,,,,,,,,,
{16},,,,,,,,,,,,,,,,E
