&title=Apocalypse
&artist=アリスシャッハと魔法の楽団
&first=0.08
&des=Turdus
&des_5=Turdus
&lv_5=13
&inote_5=(110){4},,,5/B3,
{8}2,3/B7,4,5,{4}6/B2,{16}5,4,{8}B7/B6,
{32},,,,,,B3,B4,{4}6h[8:3]/B5,{8},C,{32},,,,,,B7,B6,
{8}4h[8:3]/B5,,,8,7/1,2/6,{4}5/3h[4:1],
{24}E1,B8,B7,3/B6,,,{8}4,5,6/B3,7,8,1/B7,
2,3,{4}4/B6,{16}5,4h[16:1],{8}B6/E7,{16},,6,5,
{8}6,5,4,3h[8:3],,B5,{4}B8/B7,
{8},C,{24},,,,,,(73.33){12}5/3pp8[4:1],6,7,3/8>6[4:1],,7,
{6}6qq1[4:1],{12}7,8,,,B7/E7,2,3,4/5qq1[4:1],,2,
{6}5/1<5[6:1],{12}1,2,,3,{4}3/B5/E5,{12}4/6p4[4:1],7,7,
{6}6/4>6[4:1],{12}2,3,4,4,3>6[4:1],2,2,3/6>2[6:1],,5,
{4}5,{24}6/4,4,{12}4/6,3/5,6/4>1[8:1],3,3,4-7[8:1],5,6,
3,2,1,6/8-3[8:1],,,8/5pp8[4:1],7,6,4-1[8:1],2,2,
4<7[8:1],6,6,4/3pp1[4:1],2,2,{4}3/5<8[8:1],{12}5-2[8:1],3,4,
6,7,8,3/1-6[8:1],5,5,1/4qq1[4:1],2,3,5-8[8:1],7,6,
{4}5,{24}5/3,5/3,{12}B1/E2/E6/B5,E3/B3/B7/E7,1b-4[12:1],1-6[12:1],1,,,3q7[12:1],
3-8[12:1],3,,,5<8[12:1],5>2[12:1],{6}5pp2[4:1],{12},,4-1[12:1],4pp7[4:1],
4,,,,,B2/B3,8b-5[12:1],8-3[12:1],8,,,6q8[6:1],
6,6,4,4>1[12:1],3,3,{4}5/4<7[12:1],3/4-1[12:1],
6/4-7[12:1],2/4q5[4:1],{2}Cfh[4:1],
{12}1/2-5-3-8[4:1],6/4,8/7,2b/6,1,7,4-7-5-1[4:1],2/6,6/2,4b/3,,2,
3h[12:1],4h[12:1],5h[12:1],{24}6,3,5,4,6,3,{12}7-4[12:1],2,1,7b/8,,B5/B2/B3/B6,
8/7qq1[4:1],3/5,1/2,7b/3h[6:1],,,5-3-8-2[4:1],7/3,4/8,5b/1,7,4,
6h[12:1],5h[12:1],4h[12:1],3b,4/6,5/3,2-5[12:1],1/8,1/8,2b/6,,B2/B3/B5/B6,
8/7-4-6-1[4:1],3/5,1/2,7b/3,8,2,5-2-4-8[4:1],7/3,3/7,5b/6,,7,
6h[12:1],5h[12:1],4h[12:1],{24}3,6,4,5,3,6,{12}2-5[12:1],7,8,2b/1,,B4/B7/B6/B3,
1/2pp8[4:1],6/4,8/7,2b/6h[6:1],,,4-6-1-7[4:1],2/6,5/1,4b/8,2,5,
3h[12:1],4h[12:1],5h[12:1],6b,5/3,4/6,2h[12:1],4h[12:1],5h[12:1],7b,5/1,7/3,
5/1-3[12:1],6,6,5/1b-4[12:1],7,7,5/1-5[12:1],8,8,1/6h[4:1],,,{4}C,
{12}2-5[12:1],1,1b,7-4[12:1],8,8,3b>8[12:1],{6}2h[12:1],
{12}6-2[12:1],5,5,3<6[12:1],1,1b,8-4[12:1],7,7,8b/2,{6}3h[12:1],
{12}7/1-4[12:1],2,2,1/5-8[12:1],7,7b,5/2-5[12:1],1,1,2/6b<1[12:1],{6}7h[12:1],
{12}6/4-1[12:1],3,3,4/5<8[12:1],6,6b,5/2-6[12:1],4,4,2/1h[6:1],,,7h[6:1],
B5/B6,B1/B2,8h[6:1],B5/B6,B1/B2,7h[6:1],B5/B6,B1/B2,6h[6:1],B5/B6,B1/B2,
{4}7,{12}1h[6:1],B4/B3,B8/B7,2h[6:1],B4/B3,B8/B7,3h[6:1],B4/B3,B8/B7,
{4}2,{12}8h[6:1],B5/B6,B6/B5,7h[6:1],B1/B2,B1/B2,6h[6:1],B5/B6,B6/B5,
{4}7,{12}2h[6:1],B4/B3,B6/B7,1h[6:1],B4/B3,B6/B7,2h[4:1],{24},,,,6,
4,5,3,{12}6h[12:1],Cfh[4:1],,,,,,,,4,
{6}3/7,{12}5,6/2,,4,3/7,2,1,8/4,5,6,
{6}3/7h[6:1],C,{12},,{4}5<8[6:1],C,
4>1[6:1],C,5h[4:1],{12}C,{24},,3,4,
{12}5b/2b,4b/7b,1b/5b,7b/3b,,C,4/3-8-2-5[4:1],7/1,5/6,3b/7,4,6,
1-6-8-4[4:1],3/7,7/3,1b/2,,3,3h[12:1],4h[12:1],5h[12:1],{24}6,1,7,4,6,2,
{12}7-4[12:1],3,3,7b/1,,B8/B3/B2/B7,5/6pp4[4:1],2/8,4/3,6b/2h[6:1],,,8-2-5-3[4:1],
6/2,2/6,8b/4,6,1,7h[12:1],5h[12:1],4h[12:1],2b,{24}5,5,{12}7h[12:1],
5,4h[12:1],2h[12:1],4b,{24}5,5,{12}8h[12:1],6h[4:1],1,1,3h[6:1],8,8h[12:1],
{24}2,4,3,5,4,6,1,8,3,5,4,6,{4}1b/Cf,{12}1q5[12:1]*p5[12:1],3/7,7/3,
{4}1,{12}2-7[12:1]/6-3[12:1],4/8,4/8,{4}6/2,{12}1q5[12:1]/5q1[12:1],3/7,3/7,
{4}5/1,{12}8-5[12:1]*-3[12:1],6/2,6/2,{4}8b,{24}2-5-3-8[4:1],5,3,6,4,7,
{4}2,{24}6-1-7-4[4:1],1,7,2,8,3,{4}6,{24}2-4-1-5[4:1],5,3,6,4,7,
{12}2/8,8,8,7b<7[8:7]*>7[8:7],{1},{16},{64},,{96},{32}3,
4,{2}5b,
E
