&title=Mischievous Princess
&artist=3R2
&first=0
&des=albertoBradish
&lv_5=14
&des_5=albertoBradish
&inote_5=
(170){4},{8},,,,,,,,,,,,,,4x,
6,4,7,4-8[8:1],8x-4[8:1],,,5,
3,5,2,5s1[16:3],1,,,2x,
7,3,8,1xv6[8:1],1x-4[8:1],,,8,
1,7,1,{2}6>3[8:1],
{8}5x,3,5,2,5-1[8:1],1x-5[8:1],,,4,
6,4,7,4z8[16:3],8,,,7x,
2,6,1,8xv3[8:1],8x-5[8:1],,,{4}2>5[8:1],
2/6<1[8:1],{16}6/2x,3,4,5,6,7,8,1,
{8}2bx/5bx,3,2/5,4,5/2V48[16:3],3x,,,7x/4x,
6,7/4,5,4/7pp5[4:1],6x,,,3-8[8:1],
3x,7-4[8:1],7x,1-6[8:1],1-4[8:1],,,5x,
6,7-4[8:1],1,{4}7x/3-8[8:1],{8}3x,{16}5x,5x,
{8}4,6,7/4,5,4/7V51[16:3],6,,,2/5,
3,2/5,4,5/2qq4[4:1],3,{16},,,,6,
5,6,5,7,4,7,4,8,3,8,3,{32}8x,1,2,3,4x,5,6,7,
{1}4s8>4[16:11]/8s4<8[16:11],
{4}Cf,E8,E1,E2,
E3/E7,E4,E5,E6/E1,
{2}7xh[4:7],Ch[4:5],
{4}B2,B1,B8,B7,
E3,E2,E1,E8,
E7/E3,E6,E5,E4/B1,
{2}2h[2:1],4pp1[2:1],
1>6[2:1],1h[4:1],
{4}7xh/4xh,8h,1h,2h/4h,
3h/6h,4h,5h,6h/1h,
{2}7h/3h[4:7],Ch[4:5],
{4}B8,B1,B2,B3,
2h/5xh,1h,8h,7h/5h,
6h/3h,5h,4h,3h/8h,
{2}2h/6h[1:1],7h[2:3],
{4},5,4,3h[4:1],
Cf,1/2,3/4,{8}4,{16}6,5,
{8}7h[8:3],4,3,2,{4}5/1V75[16:3],{8}3,2,
{4}1/4x,5/8,{8}7/5,{16}6,5,{8}7,8,
{4}1<4[2:1],{8}4,3,3,2,2,1,
{4}4x-7[8:1],{8}1-4[8:1],1,{4}1x-6[8:1],{8}1x,4,
5,4,4<7[8:1],3,{4}4xV28[16:3],{8}5,6,
{4}7-4[8:1],3-8[8:1],6-3[8:1],2-7[8:1],
{8}5q1[8:1],5,2q6[8:1],2,{4}8x-4[8:1],8,
Cf,8/7,6/5,{8}5,{16}3,4,
{8}2h[8:3],5,6,7,{4}4/8V24[16:3],{8}6,7,
{4}8/5x,4/1,{8}2/4,{16}3,4,{8}2,1,
{4}8>5[2:1],{8}5,6,6,7,7,8,
{4}5-2[8:1],{8}5/8-5[8:1],8,{4}8-3[8:1],{8}8,5,
4,5,5>2[8:1],6,{4}5V71[16:3],{8}4/5,3,
{16}2x,1x,2,1,3x,4x,3,4,{24}5,6,7,8,1,2,3,4,5,6,7,8,
{8}1/2-5[8:1],3,2x/8-4[8:1],1,{4}4x/8x>3[8:1],8x/5w1[8:1],
{1}5bqq7[2:3]`Cf,
{8},,,,,,,,4xh[8:3],
E1,,E8,3h[8:3],E7,,E6,
2h[8:1],E5,1h[8:1],E4,8h[8:1],E3,7x,7x,
5b/8b,{16}6,5,{8}6,{16}6,3,{8}6,{16}6,1,{8}6,5,
4b/1b,{16}3,4,{8}3,{16}3,6,{8}3,{16}3,8,{8}3,4,
{16}7b,5,6,5,6,5,6,5,8b,5,6,5,{32}1b,2x,3x,4x,5x,6x,7x,8x,
{8}1x/Ch[4:1],{16}E8,E1,{8}E2,B7/B6,B2/B3,E1/B8/B1,{24}B6,B5,B4,B3,,,{8}1b-5[8:1],
2,1/6-8[8:1],7,6-3[8:1],4,6,{16}8,1,
{8}2-4[8:1],5-1[8:1],2-6[8:1],5x,{4}2x,{8}8<5[8:1],8,
{4}5/8x>3[8:1],3/8-4[8:1],{8}8/7,{16}7,6,{8}5w1[8:1],4/6,
{4}5x,{8}4/2-5[8:1],4,2-8[8:1],7-3[8:1],2,7,
{4}4x<8[16:3],{8}1/4,3,{4}5x>1[16:3],{8}8/5,6,
4-7[8:1],2-5[8:1],4,2,{4}8xV24[16:3],{8}5,6,
{4}7<4[8:1],7/2<7[8:1],2/5-2[8:1],5/6-1[8:1],
{8}6-4[8:1],4,6-2[8:1],1,6,8,8,8,
{4}6/8b-4[8:1],{8}8/3-1[8:1],2,3-6[8:1],5,3,{16}1,8,
{8}7-5[8:1],4-8[8:1],7-3[8:1],4,{4}7,{8}1>4[8:1],1,
{4}4/1<6[8:1],6/1-5[8:1],{8}1/2,{16}2,3,{8}4w8[8:1],5/3,
{4}4,{8}5/7-4[8:1],5,7-1[8:1],2-6[8:1],7,2,
{4}5>1[16:3],{8}8/5,6,{4}4<8[16:3],{8}1/4,3,
5-2[8:1],7-4[8:1],5,7,{4}1V75[16:3],{8}4,3,
2>5[8:1],1,2x/7>2[8:1],6,7x/4-7[8:1],5x,{4}4x/3-8[8:1],
{8}3b-5[8:1],5,3-7[8:1],8,3,1,1,1,
{4}7bh[8:1]/5bh[8:1],6h[8:1]/4h[8:1],{8}3>7[16:3],4,5,6,
6h[8:1],8,5h[8:1],1,{4}3/4V28[16:3],{8}8,6,
5h[8:1],8,4h[8:1],1,6h[8:1],8,3h[8:1],1,
7/8,{24}6,5,4,{8}3/1-5[8:1],2,{4}1,{8}6,5,
{4}2h[8:1]/4h[8:1],3h[8:1]/5h[8:1],{8}6<2[16:3],5,4,3,
3h[8:1],1,4h[8:1],8,{4}6/5V71[16:3],{8}1,2,
{4}2>6[16:3],{8}8-4[8:1],1,{4}8>3[8:1],6/8<5[8:1],
{8}8,{24}4,3,2,{8}1-6[8:1],5,1,4,4,4,
4b/2b,3,7/5,6,6V82[16:3],{16}4,4,{8}6,3,
3h[8:1],{16}1,1,{8}4h[8:1],8,6/5V71[16:3],1,2,3,
4-2[8:1],{16}1,1,{8}4-6[8:1],{16}7,7,{8}4-8[8:1],{16}8,8,{8}4,7,
2/1x,{24}3,4,5,{8}6/8-4[8:1],7,8,{16}2,2,{8}5,3,
5b/7b,6,2/4,3,3>7[16:3],{16}5,5,{8}3,6,
5b-1[8:1],{16}6,6,{8}5/4-8[8:1],3,{4}4b,{8}7,6,
{16}5b,6,4,7,3,8,2,1,4b,5,3,6,2,7,1,8,
{8}1b<4[4:1],3,2,1,{4}8h[4:1],{32}4,5/1,6/2,7/3,8/4,1,2,3,
{1}4b/8b,
E
