&title=2 Minutes Euphoria -2分間の多幸感-
&artist=Sta & Feryquitous
&first=0
&des=- Six Second Later -
&lv_5=14
&inote_5=(170)
{1},
{1}Chf[1:1]/E7/B6/E3,
{1}1bx>8[1:1],
{1}8V64[2:1]*V24[2:1],
{1}4>5[1:1],
{1}5pp1[2:1]*qq1[2:1],
{8}3/4,,3/E5,,3,E6,3h[4:1],,
{8}4,,3/B5,,3/6pp5[16:5],,3,3,
{8}2,,2/D5,,2,D6,2h[4:1],,
{8}4,,4<1[4:1]/2,,2,,2,2,
{16}3b/5x,,5,,3/5h[4:1],,,,3,,2,4,3,,1/7,,
{16}6/5,,6,,5/6h[4:1],,,,3,4,3,4,2,,1/8,,
{16}7/5,,7,,7h[4:1]/5,,,,3,,6,4,5,,2/1,,
{16}3/4,,4,,3/4h[4:1],,,,2,8,2,8,2,,3/7,,
{16}6/4,,4,,6/4h[4:1],,,,6,,7,5,6,,8/2,,
{16}3/4,,3,,4/3h[4:1],,,,6,5,6,5,7,,8/1,,
{16}2/4,,2,,2h[4:1]/4,,,,6,,3,5,4,,7/8,,
{16}4,5,4,5,3,4,3,4,2,4,3,5,4,6,5,7,
{4}1bxpp5[2:1]/8x,,5,6,
{4}7-4[8:1],4,3-8[8:1],8,
{4}6-4-7-3[2:1],4,3,2,
{8}1/7,7/1-5[8:1],,7-3[8:1],,4,4h[1:2],,
{8}3x,,3x,,2x,,2x,1x,
{8}3,,1x,,3x,2x,1x,,
{4}4xqq3[2:1]/8qq4[2:1],,,,
{8}2^7^2[8:3]/7,,7,6,5h[4:1],,,,
{4}2x-6[8:1]/8,6,8x-4[8:1]/2,4,
{4}3x^6[8:1]/2,6,7x-3[8:1]/2,3,
{4}2x^5[8:1]/8,5,6xv1[8:1]/8,1,
{4}8xp4[8:1]/2,4,2x-4[8:1]*-6[8:1],2x,
{4}3x^6[4:1],6^1[4:1],1^4[4:1],4^7[4:1],
{4}7^2[4:1],2^5[4:1],5<1[4:1],1>6[4:1],
{4}6qq2[16:5],7,8,1<4[32:11],
{8}2-6[8:1],,2,,1x-4[8:1]/5x-8[8:1],,1b/5b,,
{16}2-5[8:1]/4,,3,,2/8h[4:1],,,,4,,7,5,6,,1/8,,
{16}3^8[8:1]/4,,2,,3/5h[4:1],,,,1,6,1,6,1,,2x/7x,,
{16}8^5[8:1]/1,,7,,8/2h[4:1],,,,4,,3,4,2,,7/8,,
{16}6-1[8:1]/5,,4,,3,,2-6[8:1]*-5[8:1],,,,2,,,,7x,,
{16}7-4[8:1]/8,,6,,7/1h[4:1],,,,5,,2,4,3,,8/1,,
{16}6^1[8:1]/5,,7,,6/4h[4:1],,,,8,2,8,2,8,,7x/2x,,
{16}1^4[8:1]/8,,2,,1/7h[4:1],,,,5,,6,5,7,,2/1,,
{16}3-8[8:1]/4,,2,,3/5h[4:1],,,,1,2,3,4,7,6,5,4,
{8}1bV37[4:1],,6,6h[4:1],,8>4[4:1],,4,
{8}5,6,7,8h[4:1],,3-8[8:1],3,6,
{4}5V73[4:1],3V15[4:1],5V71[4:1],4,
{8}2w6[8:1],,,,4/8,,2/1,2/1,
{8}7V51[4:1]/3,,1V74b[4:1],,3h[4:1],,,,
{8}8V25[4:1]/7,,5V31b[32:7],5,,,6,,
{4}5-2[32:7]/4,2-6[32:7],6-1[32:7],1V75-3b[8:3],
{2}2hb[2:1],{16},,1-5[8:1],8,7,6,1x/5x,,
{16}7xb-4[8:1],,,,7,,1,,2-6[8:1]/6,,1,8,2,,7,,
{8}8-4[8:1],5-2[8:1],8,5,,4/6,3/7,2/8,
{16}1-5[8:1],,,,5/1,,6,,7v4[8:1]/4,,6,5,7,,3,,
{8}2-5[8:1]/5,1,5V38[4:1],7-3[8:1],,7,,2/6,
{8}1-3[8:1]/7,,5-1[8:1]/1,,7-5[8:1]/5,,3-8[8:1]/7,2,
{8}7v4[8:1],,1q5[8:1]/7,,6-2[8:1]/1,,4^1[8:1]/6,3,
{16}8p4[8:1],,,,8/2-6[8:1],,1,,5h[4:1],,,,7,,8/6,,
{16}1,5,2,6,3,7,4,8,Cf,,7x/5x,,6x/4x,,3x/5x,,
{16}2bx^5[8:1]/4x,,,,2,,8,,7-3[8:1]/3,,8,1,7,,2,,
{8}1q5[8:1],4v7[8:1],1,4,,5/3,6/2,7/1,
{16}8p4[8:1],,,,4/8,,3,,2-5[8:1]/5,,3,4,2,,6,,
{8}7v4[8:1]/4,8,4V61[4:1],2-6[8:1],,2,,3/7,
{8}8-6[8:1]/2,,4-8[8:1]/8,,2-4[8:1]/4,,6/2,6x^1[8:1]*q2[8:1],
{8},6x-4[8:1]*-3[8:1],,6xV84[4:1],,6,2,1,
{8}8^3[8:1],,8/7,6,5-7[8:1],4-8[8:1],5,4,
{16}7x,6,5,4,1x,2,3,4,6,5,6,3,4,3,8,8,
{8}1b-5[8:1],,7-4b[32:3]*-3[8:1]/1,,7,,2/5,1/8,
{8}3-8[8:1]/7,,7v4[8:1]/3,6,1q5[8:1]*p5[8:1],,1,,
{8}4-1[8:1]*-2[32:3]/6,,4-7[8:1]*-6[32:3],,4,,2/8,3/7,
{8}4-8[8:1]/6,,7^4[8:1]/4,6,1w5[8:1],,1,,
{8}8-4[8:1]/4,,2^5b[8:1]*q6[8:1]/8,,2,,7/4,1/8,
{8}6v1[8:1]/2,,4-8[8:1]/6,3,5w1b[8:1]/4,,5,,
{16}3,4,2,4,1,5,4,5,2,6,5,6,4,5,3,4,
{16}3,3,4,2,6,6,5,{32}7,,E5,E6,E7,E8,E1,E2,E3,E4,D5,D6,D7,D8,D1,D2,D3,D4,
{4}7bx^4[4:1],4^1[4:1],1^6[4:1],6^3[4:1],
{4}3p6[4:1],6^4-8[32:11],4,3,
{8}2/1,2,2/8,2,2/7,2,2/6,2,
{8}1x/5,1x/6,1x/7,1x/8,{16}1x,2,3,4,8x,7,6,5,
{16}3,4,3,4,2,6,2,6,8,7,8,7,1,6,4,5,
{16}2,4,2,4,3,5,3,5,4,6,4,6,1,8,3,4,
{16}2,1,3,8,2,7,3,6,2,4,3,6,5,7,1,8,
{32}3hxb[16:10]/7xhb[8:3],,,,,,,,,,,,,,,,,,,,{48}A2,D2,A1,D1,A8,D8,A7,D7,A6,D6,A5,D5,,,,,,,
{16}2hx[8:1]/4hx[8:1],,,2hx[8:1]/4hx[8:1],,,2bx-5[8:1]/4bx,,,,,,,,,,
{16}7hx[8:1]/5hx[8:1],,,5hx[8:1]/7hx[8:1],,,7bx-3[8:1]/5bx,,,,,,,,,,
{16}2hx[8:1]/4hx[8:1],,,3hx[8:1]/5hx[8:1],,,6bxv4^5-1[4:1]/4bx,,,,,,,,,,
{8}3V52[4:1],,7,7-4-8[4:1],,3,3,,
{16}7hx[8:1]/5hx[8:1],,,7hx[8:1]/5hx[8:1],,,7bx/5bx-1[8:1],,,,,,,,,,
{16}2hx[8:1]/4hx[8:1],,,4hx[8:1]/2hx[8:1],,,4bx/2bxv3-5[16:3],,,,,,,,,,
{16}7hx[8:1]/5hx[8:1],,,4hx[8:1]/6hx[8:1],,,3x/5x,,2x-5[8:1]/4x,,,,2bx,,,,
{16}A8/4x,,,A7/4,,,A6/4,,5x/A3,,,5/A2,,,5/A1,,
{8}7h[4:1]/8,1,2,3,4/5^8[8:1],3,3,3,
{8}2h[4:1]/1,8,7,6,5/4^1[8:1],6,6,6,
{8}7/8,1,2/4,3,4/6,5,1/7,8,
{16}1x/2x,8,7,6,4x,3,2,1,5x,6,7,8,4x,3,2,1,
{4}6bx^3[4:1],3^8b[4:1],8^5[4:1],5^2b[4:1],
{4}2^7[4:1],7^4b[4:1],4>8[4:1],8<3b[4:1],
{4}3pp7[16:5],2,1h[4:1],{16}8,7,6,5,
{16}4/3-6[8:1],,,,3/6,,,,4x/5x,3,2,1,5,6,7,8,
{8}2-4[8:1],4-1b[8:1],2,6,7-4[8:1],8-3b[8:1],7,8,
{8}5-1[8:1],1-7b[32:3],5,2,{24}3xh[8:1],,,8x,7,6,2,3,4,7,6,5,
{8}1bV74V62[2:1],,5,5h[8:3],,,,,
{16}1/7,,4/6,,1/5,,7-4[8:1]/3-8[8:1],,,,7/3,,,,5x/1x,2x/6x,
{8}7x-3[8:1]/3x,3-5b[32:3],7,2,1-5[8:1],6-1b[8:1],1,6,
{8}2b-5[8:1],4,2,8,7b-4b[8:1],5,7,1,
{8}2-5[8:1],5^2[8:1],2V84[4:1],6,8,,7-4b[8:1],4x^7b[8:1],
{8}7V15b[4:1],3,1,,{16}2x,1x,8x,7x,6x,5x,{24}4x/8x,3x/7x,2x/6x,
{1}1bx-7-2-6-3-5[2:3]/5bx,
{1},
{1}2>8[2:1],
{1}6pp4[2:1]*pp3b[2:1],
{8}3/5,3,3/6,3,37,3,38,3,
{8}84,8,83,8,82,8,81,8,
{16}8b,3,4,3,1,4,5,4,8,5,6,5,1,4,5,4,
{8}3x/5x,7/8,2/3,5/6,1/8,3/4,{32}2x-6b[12:1],3,4,5,6,7,8,1,
{1},
E
