&title=mama
&artist=CorLeonis
&first=0.02
&des=Yuzuki
&clock_count=4
&lv_5=13
&inote_5=(125)
{1},
{8}
6<2[4:1],,5h[4:1],,,4h[8:1],1,4h[8:1],2q4[2:1],,,,,,,,1>5[4:1],,6h[4:1],,,8h[8:1],6,8h[8:1],7p4[2:1],,,,,,,,8<3[4:1],,2h[4:1],,,8h[8:1],2,8h[8:1],1p8[2:1],,,,,,,,6>8[4:1],,4h[4:1],,,7h[8:1],1,7h[8:1],8s4[2:1]*s4[2:1],,,,,,,,
{8}
6-4[8:1],,3,3,,2,2-6[8:1],4h[4:1],,,,5V71[4:1]*V31[4:1],,D6/D5,,,2-4[8:1],,5,5,,6,6-1[8:1],4h[4:1],,,,8^3[16:3]*^5[16:3],,D8/D1,,,3-5[8:1],,6,6,,7,7-3[8:1],5h[4:1],,,,4V61[4:1]*V27[4:1],,E5/E4,,,6-4[8:1],,2,2,,1,1-5[8:1],4h[4:1],,,,7pp4[16:5],,A7/D7,,,
{8}
6p1[32:5],,3,2,7x/8x,6,5x/4x>5[4:1],2hx[8:3],,,,4pp3b[16:5],,,,,2^5[8:1],,6,7,1x/2x,3,4x/5xV71-3[4:1],2hx[8:3],,,,4q5b[16:5],,,,,Ch[4:6],,6x,6x,,5x,6x,7hx[8:1],,7x,8x,,1xv8[8:1],,B3/E4/B4,,7p2[32:5],,4,3,8^5[8:1]/1,,2V86[16:3],2,,4-8^1-5[8:3],4,,3x,2x,,,
{8}
1<2[4:6],,,,,,,4x,4x,,,,,,7qq4[4:6],7,3qq3b[4:5],,,,,,,,,,,,,,,,2<3[4:6],,,,,4,4,,,8h[8:1],,2h[8:1],,5,6,7,2-5-1b[4:1],2,,,,8,7,6h[4:1],,5>6[24:5],,5,,
{24}
5x,4x,3x,2x,1x,8x,7x,6x,5x,
{8}
4x/8bxp4b[8:1],8,2,2^7[8:1],,5h[4:1],,6,5,4w8[8:1],2,4b,,
8qq8[16:7],,1b,2x,2x,4x,3x,2q5[16:5],2,6,7,8<1b[16:5],8,4,4,,6b,5b,,
2^5[8:1],,6,7,8p4[8:1],8,3,2,1^6[8:1],1,4,5pp4[32:9],,4b/5b,,,5x^8[8:1],,1,2,3^8[8:1],3,8,7,56,4-8[8:1]/3,2,4^7[8:1]/1^4[8:1],,41,,8x,
1bxq5b[8:1],1,6,7^2[8:1],,4h[4:1],,3,4,5-8[8:1]*-2[8:1],7,5b,,1qq4[16:8],,1b,5x,5x,6x,6x,7^2[16:4],7x,3x,3x,4xq5b[16:6],4x,7x,7hx[8:1],,7b,8b,,
7^4[8:1],,3,2,1q5[8:1],1,6,7,8^3[8:1],8,5,4qq8[32:10],,5b/4b,,,5^8[8:1],,1,2,3^8[8:1],3,8,7,5x/6xpp1[16:7],4,4,3,3,2,2,8x,8bx^3b[8:1],8,5,6-2[8:1],,5/6,,18,27,36,45,5/4>6[24:5],,8hb[8:2]/4b,,
{32}5x,4x,3x,2x,1x,8x,7x,6x,5x,4x,3x,2x,1x,8x,7x,6x,5x,4x,3x,2x,1x,8x,7x,6x,5x-1^8-4[2:1],,,,,,,,7bh[2:1],,,,,,,,,,,,,,,,,,,,,,,,E3,,,,B4,,,,
{8}
5x,5bx^8b[8:1],4,3,2-6[8:1],,1/2,,81,72,63,54,4/5<3[24:5],,1hb[8:2]/5b,,
{32}4x,5x,6x,7x,8x,1x,2x,3x,4x,5x,6x,7x,8x,1x,2x,3x,4x,5x,6x,7x,8x,1x,2x,3x,4x-8^1-5[2:1],,,,,,,,2h[2:1],,,,,,,,,,,,,,,,,,,,,,,,56,,,,5/6V41[2:1],,,,,,,,
{8}3h[4:3],,,,,,,8,2h[8:4]/8h[4:7],,,,,2x<3-1-7-5p4[8:15],,,,,,,,,,,,,,,,,C,,4h[4:3]/3h[4:3],,,,,,,5,7h[4:7]/5h[8:4],,,,,5x-3-6-2-7-1-7-2-6-3-5[8:15],,,,,,,,,,,,,,,,,
