&title=Breakcore WTF!?
&artist=LeaF
&first=0
&des=来来来我问一下谁投的这个b歌呢宝宝我先问一下你觉得这个像歌吗这踏马就是鬼畜来的吧感觉我有一种写了一个otto音骂的谱然后交上来的感觉括号纯是为了凑字数对投曲人和曲师没有任何恶意谱师创作时非常享受玩的也非常开心就是不知道这谱能不能打反正我尽力削了谢谢大家谢谢大家ps这么长谱师名义是为了neta想到哪句唱那句我觉得趁机说一点话也行哈哈哈哈哈哈哈哈哈哈哈哈哈哈哈哈哈哈
&clock_count=4
&lv_5=14+
&inote_5=(250)
{1},,
{24}6b/3,7b/2,8b/1h[24:16],{16},,6z2[8:3],,,,,,,,,,,,
1,,1h[8:2],,,,5^8[8:2],,,,2,,4-1[8:1],,,,
4bV26[8:3]*v5[8:3],,,,,,,,,,,,4-1[8:1],,,,
4bV27[8:3]*v6[8:3],,,,,,,,,,,,4h[8:2],,,,
7,,7,,65,,6/5,,,,28,,28,,,,
{24}8,17,2h[48:29]/6,{16},,,,,,1h[16:3],,,,,,,,
{8}3h[8:2]/5h[8:2],,,,6h[8:2]/4h[8:2],,,,
2h[8:2],,5,3,4-6[8:1],,,,
8h[8:3],,5,,6h[8:2]/4h[8:2],,,,
3-5[8:1],,5-1[8:1],,7h[8:2],,,,
2h[8:2]/8h[8:2],,,,7h[8:2]/1h[8:2],,,,
2h[8:2],,5,3,4-2[8:1],,,,
7h[8:3],,5h[8:2],,4h[8:2],,2h[8:4],,
{24}1,8,7,6,5,4,{8}3V58[8:2],,2v1[8:1],,,,
8h[8:2],,2,1,2h[8:2],,4,3,
53,,6h[8:1]/4h[8:1],,7-4[8:1]/6-4[8:1],,,,
2h[8:2],,5,4,3/5,,6,,
7-5[8:1],,5-1[8:1],,3h[8:2],,,,
7h[8:2]/1,,5,,6h[24:1]/5h[24:1],65,4,4,
7,7,2,2,4-7[8:1]*-8[8:1],,,,
1,1,3,3,5,5,7,7,
{16}1,8,1,8,1,8,1,8,2,3,4,5,2-6[8:1],3,4,5,
{8}2b^7[8:10]*v4[8:10],,,,,,,,,,,,,,,,
{16}5h[8:2]/3h[8:2],,,,,,5h[8:2]/3h[8:2],,,,,,{16}53,,,,
{8}8qq5[8:4],,4v2[8:2],,,,,,
{8}3h[8:1]/4pp7[8:9],,3h[8:1],,3h[8:1],,3h[8:1],,
2h[8:1],,2h[8:1],,1h[8:1],,{16}1,8,1,8,
2h[8:2],,,,6,5,6,5,7h[8:2],,,,4h[8:6],,,,
3b,,,,2b,,,,1bw5[8:1],,,,,,,,
3h[8:1],,4,,3h[8:1],,2,,1h[8:1]/8,,,7h[8:1],,,3,,
54,,6h[8:1],5,,,7,,1-5[8:1],,2,,3b^8[8:1],,,,
6,,,,7h[8:1],1,,,2h[8:1],,8,,2h[8:1],,4,,
5h[8:1]/3h[8:1],,,5h[8:1]/3h[8:1],,,4,,7h[8:1],5,,,8q5[16:3],,,,
1b,,,,,,,,2,,2,,7,,7,,
18,,2,,1h[8:1]/8,,,6h[8:1],,,1,,8h[8:2]/2,,,,
3h[8:1],,5,,46,,7h[8:1],5,,,7,,8-5[8:1],,,,
5bq4[8:4],,,,3^8[8:2],,,,,,,,,,,,
17,,7,,2h[8:1],1,,,8h[8:1],1,,,3,,3,,
54,,7h[8:1],5,,7h[8:1],5,,8-4[8:1],,4,,3b^8[8:1],,,,
5,,,,6,,6,,18,,7h[8:1],8,,,7,,
17,,2,,5,2h[8:1],4,,2h[8:1],4,,,1q6[16:3],,8,,
7b,,,,,,,,8,,8,,4,,4,,
5/6,,6,,56,,3h[8:1],4,,2h[8:1],4,,8-4[8:1],,,,
8bV63[8:4]*V25[8:4],,,,,,,,,,,,,,,,
3<3[8:4]/4h[8:4],,,,,,,,,,,,5b,,,,
1b/2b,,,,7b/8b,,,,1b/2b,,,,4b/3b,,4b/3b,,
2b/8b,,,1b/7b,,,8b,,6b/5b,,4b/5b,,3b/4b,,,,
{24}1b/8b,27,36,4z8[8:3]/5s1[8:3],,,,,,,,,,,,,,,,,,,,,
{16}1v3[16:3],,5v7[16:3],,,,,,,,,,26,,,,
4h[8:1],,,,4,5,,4,5,,4h[8:1],,,,5h[8:1],,
4,,4h[8:1],5,,,3-8[8:1],,5-1[8:1],,,,,,,,
4,,4h[8:1],5,,,5h[8:1],,4,5,,4,5,,4,,
2-5[8:1],,5V38[8:2],,6,,6h[8:2],,,,,,7,,,,
4h[8:1],,,,4h[8:1],,,,4,5,,4,5,,4,,
6,,7V52[8:2],,4-1[8:1],,7,,,,,,8h[8:1],,,,
4,,4h[8:1],5,,,4,,4,5,,4,5,,4q5[8:5],,
36,,,,,,,,,,,,7b^4[8:1],,,,
{24}3b,2b,1b,{16},,,,,,8-4[8:1],,2-6[8:1],,,,,,
8^5[8:2],,,,5^2[8:2],,,,2V47[8:2],,,,8,,,,
{24}1,2,3,{16}4h[8:2],,,,8,,2,,5,,4-1[8:1],,,,
4-7[8:1]*-6[8:1],,,,4qq5[8:3],,,,,,,,8,,,,
{24}1,8,7,{16}6h[8:3],,,,,,3,,5,,2,,6,,
1q6[16:3],,,,8qq1[8:3],,8,,,,,,,,,,
{24}2,3,4,{16},,7-1[8:1]/6,,,,2-5[8:1],,,,8,,,,
17,,,28,,,17,,5b,,,,2^5[8:1],,,,
{24}6,7,8,{16},,,,,,1-4[8:1],,7-4[8:1],,,,,,
1^4[8:2],,,,4^7[8:2],,,,7V51[8:2],,,,1,,,,
{24}8,7,6,{16}5h[8:2],,,,1,,7,,4,,5-8[8:1]*-7[8:1],,,,
5-2[8:1]*-3[8:1],,,,5pp4[8:3],,,,,,,,1,,,,
{24}8,1,2,{16}3h[8:3],,,,,,6,,4,,7,,3,,
8p3[16:3],,,,1p8[8:3],,1,,,,,,,,,,
{24}7,6,5,{16},,2/3,,,,1-7[8:1]/8-2[8:1],,,,,,,,
5b/4b,,,,6h[384:1],7,8,1,{24}2h[384:1],3,4,5,6,7,{32}8-4[8:1],1,2,3,4,5,6,7,
{32}2b,,,,,,,,{8},,,,,,,,,,,,{16}21,,,,
3h[8:3]/7h[8:3],,,,,,,,,,,,2,,5,,
3h[8:2]/5h[8:2],,,,,,,,6h[8:2]/4h[8:2],,,,,,,,
{8}24,,3,,54,,6,,28,,4,,65,,7,,4,5,3,6,4,5,2,7,
1h[16:1],1h[16:1],8h[16:1],8h[16:1],1h[16:1],1h[16:1],8h[16:1],8h[16:1],
{16}2h[32:1],1h[32:1],2h[32:1],1h[32:1],2h[32:1],1h[32:1],2h[32:1],1h[32:1],2-6[8:1]*-6[8:1],1h[32:1],2h[32:1],1h[32:1],2b,,,,
{8}8p4[8:1],8,2^5[8:1],2,8p4[8:1],8,2^5[8:1],2,
7^2[8:1],7,3-6[8:1],3,7^2[8:1],7,3-6[8:1],3,
8-5[8:1],8,4,4,36,2,17,6,
3-1[8:1]/4-1[8:1],,3-6[8:1]/4-6[8:1],,3/4-8[8:1],,,,
1^4[8:1],1,7p3[8:1],7,1^4[8:1],1,7p3[8:1],7,
2-5[8:1],2,8-5[8:1],8,2V48[8:2],2,7,,
6,6,2,2,54,54,5-2[8:1]/4-2[8:1],,
4-7[8:1]/5-7[8:1],,5-2[8:1]/4-2[8:1],,5/4w8[8:1],,,,
26,3,64,5,{16}7,,7,,5,6,5,,
17,,2h[8:1],8,,2h[8:1],4,,26,,8h[8:2],,{24}2,3,4,,,,
{16}65,,7,,65,,4,,8h[8:1],1,,8h[8:1],1,,2/7,,
3-1[8:1]/6-4[8:1],,,,6-8[8:1]/3-5[8:1],,,,3/6v3[8:1],,,,,,,,
2,,2,,1-5[8:3],,7-3[8:2],,,,,,,,,,
1-4[8:2],,,,3-6[8:1],,,,,,,,,,,,
8-5[8:2],,,,,,,,7b,,,,6h[8:10],,,,
{8}5,5,5,5,5h[16:1],5h[16:1],5h[16:1],5h[16:1],
{16}4,3,2,1,3,2,1,8,2,1,8,7,1b,,,,
{8}2^5[8:1],3,7-3[8:1],8,2-4[8:1]*-5[8:1],1,,,
1-3[8:1]/7-4[8:1],17,,,65,65,{16}7h[8:1],,1,8,
{8}1V37[8:4]*s5[8:4],,,,,,,,
{24}1/5h[8:1],2,3,,,,1/5h[8:1],2,3,,,,1/5h[8:1],2,3,,,,1/5h[8:1],2,3,,,,
{16}5q2[8:8]/4h[8:2],,,,,,,,3h[8:1],,,3h[8:1],,,3,,
3h[8:4],,,,,,,,8,,8,,8,,8,,
2^5[8:1],,2,,1v6[8:1],,1,,2^5[8:1],,2,,1v6[8:1],,1,,
2qq8[8:4]*q8[8:4],,,,,,,,,,,,,,,,
71,,2,,83,,6,,4v6[8:1],5v3[8:1],4,,,,,,
7,,2h[8:1],8,,2h[8:1],8,,1,7,1,,6,,6,,
3,5,3,5,4-8[8:1],,,,4b-2[8:1]*-6[8:1],,,,,,,,
1h[8:1],,2h[16:1],,3h[8:1],,4h[8:1],,5h[8:1],,6,,7-4[8:1]/8-3[8:1],,78,,
7b/8b,,,,,,,,,,,,1-4[8:1],,,,
4,,,,,,,,,,,,7-4[8:1],,,,
4,,,,2-5[8:1],,,,5,,,,7-1[8:1],,,,
4w8[125#16:1],,4h[8:3],,,,,,,,,,,,,,
5b,,,,,,,,4,,,,27,,,,
1b/8b,,,,27,,3,4,3h[8:1],,5,,4h[8:1],,6,,75,,6,,
3,4,2,4,3h[8:1],,5,,2h[8:1],,8,,18,,1,,
27,,6,5,7h[8:1],,5,,7h[8:1],,4,,53,,2,,
64,,7,,53,,1,,17,,1,,
1h[8:1],,
7,,82,,3,5,4h[8:1],,7,,2h[8:1],,5,,38,,7,,
2,8,1,7,2h[8:1],,6,,71,,2,,83,,6,,
27,,6,5,7h[8:1],,5,,8h[8:1],,2,
{96},,,,,,4p5[8:4],5v4[8:4],,,,,{16},,,,,,,,,,,,,,,
{2}37,26,37,26,
37,26,37,26,
3h[8:2]/7h[8:2],2h[8:2]/6h[8:2],
3h[8:2]/7h[8:2],2h[8:2]/6h[8:2],
3h[8:2]/7h[8:2],3h[8:2]/8h[8:2],
3h[8:2]/1h[8:2],{24}3h[8:2]/2h[8:2],,,,,,,{96},,,,,,,,,{24}1b/4b,8b/5b,
