&title=Acid God
&artist=Yuta Imai
&first=0.4
&des_1=SetDesigner
&des_2=SetDesigner
&des_3=SetDesigner
&des_4=SetDesigner
&des_5=Eula
&lv_5=14+
&des_6=SetDesigner
&des_7=SetDesigner
&des=SetDesigner
&inote_5=(160)
{16}
8/2h[8:1],,,2,,,
6,6,3,5h[8:1],,2h[8:1],,,4,,
7/1h[8:1],,,1,,,
5,5,2,4h[8:1],,1h[8:1],,,3,,
8/2h[8:1],,,2,,,
6,6,3,5h[8:1],,2h[8:1],,,4,,
6,5,7,3,4,2,7,7,2,4,3,6,,3,3,,
2h[8:1]/4h[8:1],,,5,3,,6,5,6,6,3,4,2,
,5,2,2,7,,7,8/6,,
3,3,8,7,1,6,2,,
{32}
E6,B5,B4,E4,
{16}
8/2h[8:1],,,2,2,,
6,6,3,5h[8:1],,2h[8:1],,,4,,
{1}
7b/B3f,
{16}
1/7,,2,,1/3,,4,,5/3,,6,,
{24}
7/5,4,3,
{16}
8,8,
7/1,,6,,7/5,,4,,3/5,,2,,
{24}
1/3,4,5,
{16}
8,8,
2,1,3,4,1,8,4,5,
{32}
B2,B3,B4,B5,
E8,E7,E6,E5,A1,A2,A3,A4,A5,A6,A7,A8,
{1}
A1/Cf,
{16}
2,2,2h[8:1],,
8,8,8h[8:1],,
4,4h[8:1],,
6,6h[8:1],,4,,
7,7,7h[8:1],,
1,1,1h[8:1],,
5,5h[8:1],,
3,3h[8:1],,5,,
2,1,
{24}
3,4,3,
{16}
6,5,
{24}
7,8,7,
2x,2x,1,
3x,3x,8,
4bx-7-2<8v6>4b[8:7]*-2[8:1],,,,,,
{1},
{12}
7h[8:4],,B1,,B5,,
3h[8:4],,B5,,B1,,
8,2,2,
5/3,6,6,Ch[8:2],,,,,,
B2,7,6,
B3,8,7,
B4,6,5,
B5,
{24}
3,4,3,4,
{12}
B1,6,5,
B2,7,6,
B3,
{24}
7,8,7,8,
C,,2,1,2,1,
{12}
B2,7,6,
B3,8,7,
B4,7,6,
1b,1b,1b,
2bv4-1[8:2],,
5,
{24}
5h[12:1],,,,
6h[12:1],,,,7,,7h[12:1],,,,8h[12:1],,,,
{12}
B7/E8,2x,3x,
B6/E7,1x,2x,
B5/E6,3x,4,
B4/E5,
{24}
6x,5,6x,5x,
{12}
B8/E8,3x,4,
B7/E7,2x,3x,
B6/E6,
{24}
2x,1,2x,1x,
C,,7x,8x,7,8x,
{12}
B7/E8,2,3x,
B6/E7,1,2x,
B5/E6,2x,3x,
8b,8b,8b,
7b-3-5-8-4[8:5],,
4,,,,
{4},,
{16}
3,4,3,4,2,5,3,4,
2,1,2,1,3,8,
{24}
2x,3,4,
{16}
5/8,7,6,5,
1,8,7,6,
{12}
2x,1x,8x,
{4}
7x/3b,
{16}
6,5,7,4,6,5,
7,7,3,4,2,5,3,4,
2,2,
8,7,6,5,
4/3,2,1,8,7-3b[8:1]/5,5,,8,8/7,,,,
2-4-6[8:2],,,,6>8[8:2],,,,8-2-4[8:2],,,,5,,,,
7-5-3b[8:2],,,,3<1b[8:2],,,,1-7-5b[8:2],,,,4,,,,
1,2,3,4,
7,5,6,4,
8,7,6,5,
2,4,3,5,
4,3,2,
8,7,6,
3,2,
8,8,
3,4,2-5-1-6[8:3],5,1,6,2b,,,,
{12}
5b,5b,5b,
1b-5[8:1],1b,1b,1b/B7/A8/E8f/A7,,,
{16}
3,4,,
6,5,,
{24}
2,1,2,
{16}
1,3,8,2,,
6,5,7,
2b-4[8:1],,7,,2b-8[8:1],,
5,5,
2b-4[8:1],,6,,2b-8[8:1],,
7,7,
2b-4[8:1],,4b-8[8:1],,
8b,7b,6b,,
5b,5b,,3b/7b,3b/7b,,,,
2b-4[8:1],,7,,2b,,
5,,6b/2,,
4,5/3b,,
8,1h[16:3]/7bh[16:3],,,,7b/1b,,2b/6b,,
{24}
8b/2b,7b/3b,6b/4b,
{16}
5b,5b,,
1b,B1f,,,,
8,7,6/B2,5,4/B8,3,2,1,8/B4,7,6/B2,5,4/B8,3,2,1,
8/4,3,2/B6,1,8/B4,7,6,5,4bx/B8,3bx,2bx/B6,1bx,8bx/B4,,
6hx[32:1],6hx[32:1],3,,
{64}
1,2,,,
{16}
8b/3b,,
{64}
8,7,,,
{16}
1b/6b,,
{64}
4,3,,,
{16}
5b/2b,,
{64}
5,6,,,
{32}
4b/7b,3,2,1,8,7,6,5,4h[8:1],,,,
E8,E7,E6,E5,
B1,B2,B3,B4,
A8,A7,A6,A5,
E1,E2,E3,E4,
E8,E7,E6,E5,
A1,D2,A2,D3,A3,D4,A4,D5,
{1}
A5/Ch[8:28],B3h[8:20],B6h[8:12],
{4}
E5h[8:4],,,6/3,
{16}
5/4h[8:15],,,,5,,6,6h[16:3],,,,,8,,7,7h[16:3],,,,,5,5,,6,,7,,
5h[8:1],,,5,,
4/5h[8:16],,,,4,,3,3h[16:3],,,,,1,,2,2h[16:3],,,,,4,4,,3,,2,,
4h[8:1],,,4,,
2,,3,,
4,3,4,3h[16:3],,,4,,
5,6,5,6h[16:3],,,5,,
5/4,5/4,,3/6,,2/7,,8h[8:1]/1h[8:1],,,8/1,,
3,,2,,
1,2,1,2h[16:3],,,1,,
8,7,8,7h[16:3],,,8,,
8/1,8/1,,
8-6-4[8:2]/1-5-3[8:2],,,,,,,,,
2x,1,2,8x,1,8,2,2,
7x,8,7,1x,8,1,7,7,
3x,5,5,2x,4,4,3x,3x,
6,5x,7,3,4x,2,6x,6x,
2x,1,3,8x,2,7,1,1,
7x,8,6,1x,7,2,8,8,
3,4,,
6,5,,
{24}
2,1,2,
{16}
1x,2,8x,3,7x,4,6x,5,
7,8,7,8,7,8,7,8,6x,8,7,8,7,8,
{24}
7,6,5,
{16}
2,1,2,1,2,1,2,1,3x,1,2,1,2,1,
{24}
2,3,4,
6bx,5,6,5,6,5,7x,5,6,5,6,5,7x,5,6,5,6,5,7x,5,6,5,6,5,
{1}
7bxw3b[8:4],
{16}
8/1b>4[8:1],,2,,7b-3[8:1]/1,,6,6,7/2b-6[8:1],,1,,5b,6,7,8,1bv4[8:1],,2,,
1/7b-2[8:1],,6,,7bx/5,,1bx/5,8bx/4,7bx/3,,
{24}
2/6,3/7,4/8,
{16}
5bx/1bx,,,,
4b-8[8:1]/8,7,6,5,4/2b-5b[8:1],,6-1b[8:1],,2b,,6b,,7bh[8:1]/3bh[8:1],,,,
2bx/6bx,1bx/5bx,,
8b/2b,,6b/4b,,1b/5b,,
8b/2b,8b/2b,,
1/8b-6>5[8:1],,7,,2b-6[8:1]/8,,3,3,2/7b-3[8:1],,8,,4b,3,2,1,8b<5[8:1],,7,,
8/2bv7[8:1],,3,,2bx/4,,5,,8b<5b[8:1]/1b>4b[8:1],,7/2,,8b/1b,,,,
3b,3b,4,2bh[16:3],,,5,5,
7b/8b,6b/1b,2b/5b,4bh[8:1]/3bh[8:1],,,
{32}
6x,5x,6x,5x,
{16}
7bx,7bx,5,6bh[8:4],,,,,,,,,
{12}
6,,B8,2,B7,3,B6,,
B1,7,B2,6,B3/5,5,4,
5,4,5,3,3,6,
{16}
1x>4[8:1],,,,A1f/E2/D2,,,,
7b-3b[8:1],8,6,8,7b,,1,,
2b/4b,,5b/3b,,1b/7b,,2b/8b,,
1b/6b,1b/6b,,8b/3b,,2h[8:1],,1,,7,7,,
5/4b>1[8:1],,3,,6b-1[8:1]/4,,7,7,6/3b-7[8:1],,4,,8b,7,6,5,4bv1[8:1],,3,,
4/6b>3[8:1],,7,,6/1b,,2,,3b,,
1b/2b,8b/3b,
7bh[8:1]/4bh[8:1],,,1bh[8:1]/2bh[8:1],,,
6bh[8:1]/5bh[8:1],,,8bh[8:1]/3bh[8:1],,,1b/2b,,3b/4b,5/2,6b/1b,,
{24}
8/7,1/6,2/5,3b/4b,,4/3,,,
8h[16:3]/7h[16:3],,,,,,,
{16}
8<5[8:1]/7,,
2,3,8b-3[8:1]/4h[8:4],,,,8b-5[8:1],,,,8b>3[8:1],,,,
8b-6[8:1]/4-1[8:1],,,4,8b>3[8:1]/4b<7[8:1],,,,8b/4b,,,,
8/4,,
{24}
8/4,7/3,6/2,5bx/1bx,,,
1/5,2/6,3/7,
{16}
4bx-1[8:1]/8bx-5[8:1],,,,8b-4[8:1]/4b-8[8:1],,,,8b/4b,,,,
7/1,6/2,5/3,,7b/1b,,3,4b/2b,,7,8b/6b,,
5b/4b,,8/1,2b/7b,,4/5,3b/6b,,
{24}
2>5[8:1],1,2,1,2,1,
{16}
2b<7[8:1],,6h[8:2],,2b-5[8:1],,,,2b-7[8:1]/6,7,8,,
2b/5<8[8:1],,6,,5/1b>4[8:1],,2,,1/6b<1[8:1],,7,,6/2b>5[8:1],,3,,
8/2,8,,
1/7,1/7,,
5/6,5/6,,
1/3,1/3,,
{32}
8,7,6,5,4,3,2,1,
{16}
8b/4b,,,1b/6b,,,
7b/3b,,1b/5b,,,,
2-7>8-6-1-5-2-4[8:14]/6-3[8:1],,,,
{1}
2/6,,
{16}
8bx/7bx,8bx/7bx,8bx/7bx,,
1bx/2bx,1bx/2bx,
{24}
3bx,4bx,3bx,
{16}
5bx,5bx,,
{32}
1bx,8bx,1bx,,,,
5bx,4bx,5bx,4bx,
{16}
5bx,3bx,3bx,,
6bx/5bx,6bx/5bx,
{24}
7bx,8bx,7bx,
{16}
1bx/2bx,1bx/2bx,
{24}
3bx,4bx,3bx,4bxh[8:1],,,
{16},,
3bx/4bx,3bx/4bx,
{24}
2bx,1bx,2bx,
{16}
8bx/7bx,8bx/7bx,
{24}
6bx,5bx,6bx,
3bx,3bx,4bx,2bx,2bx,5bx,1bxh[8:1],,,,,,
{1}
5b-8-3-6-1-4[8:6]/4b-7-2-5-8-3[8:6],C,
E
