&title=YES!サマーラブ♡
&artist=神前晓/ハピネス(CV:野口衣織)、シケ(CV:櫻井もも)、ミサキ(CV:小澤愛実)
&first=0.655
&des=真夏の歌声、届けるね
&lv_5=13
&inote_5=(216)
{4},,
{24}E8/E2,E7,E3,E6,E4,E5,
{4},
{12}2x/5x,,,3,,4,,,4,2,,,
{12}8,,3,6x,,5,7,,2x,4,,,
{12}3x/8x,,,7,,5,,,4,6,,,
{12}2,,5,3x,,6,4,,3x,5,,,{12}7x/4x,,,6,,5,,,5,7,,,
{12}1,,6,3x,,4,2,,7x,5,,,
{4}1x/6xh[4:1],4h[4:1],2h[4:1],8h[4:1],
{4}6h[4:1],4h[4:1],8h[4:1],2h[4:1],
{4}1,8>3[8:1],7b,5,
{4}8,1<6[8:1],2b,4,
{4}6-8[8:1],5/6,3-1[8:1],3/4,
{4}6b,4b/7,1bh[4:1]/5h[4:1],,
{12}2,,2,4,,4,3,,3,8,,8,
{8}2x-5[8:1],,6,,7-3[8:1],,1,,
{8}2,,3/8,,6,,1/5,,
{12}2/4,,3,4,,2,5-1[8:1],,,3,,,
{12}4x/8x,,,6,,5h[12:1],,,5,7,,,
{12}1/6,,,2,,4h[12:1],,,4,1,,1,
{4}8-4[8:1],2/8,1-5[8:1],1/6,
{4}7-3[8:1],2-5[8:1]/7,2/8h[4:1],,
{12}4/7,,6,5,,3,4,,2,5,,3,
{4}8x<5[8:1],2,1>4[8:1],7,
{4}8x-5[4:1],5x-2[4:1],2x-7[4:1],7x-4[4:1],
{4}4x>5[4:2],,,1hx[4:1],
{12}8,,,7,,5x/6x,,,6,4x/7x,,,
{12}1/8,,,2,,4x/3x,,,3,2x/5x,,,
{4}8,6,3,8w4[8:1],
{4}8,E4,E6,E7,
{12}3,,3,4,,2,,,2,5,,5,
{12}4,,4,6,,6,5,,8b,,,,
{12}2/7,,3,6,,6,4,,4,5,,5,
{4}3h[4:2],4,6h[4:2],5,
{4}4h[4:2],3,5h[4:2],6,
{4}3h[4:2],4,6,3q5[4:2],
{4}3/5,,8-4[8:1],3q5[4:2],
{4}3,,8-4[8:1],3,
{4}2,1,6h[12:3],
{12},,5,
{4}7,4/8,4-1[8:1]/8,,
{12}7x/2x,,6,3,,3,5,,5,4,,4,
{4}6h[4:2],5,3h[4:2],4,
{4}5h[4:2],6,4h[4:2],3,
{4}6h[4:2],5,3,6p4b[4:2],
{4}6/4,,1-5b[8:1],6p4b[4:2],
{4}6,,1-5b[8:1],6,
{4}7,8,3h[12:3],
{12},,4,
{4}2,5/1,5-8b[8:1]/1,,
{12}2h[4:1],,,1,,3h[4:1]/1h[4:1],,,,4/8,,,
{12}7h[4:1],,,8,,6h[4:1]/8h[4:1],,,,5/1,,,
{4}2/4,3,5/7,6h[4:2],
{4}1,2,3/8,7,
{4}1/6,1/6,2/4,2/4,
{4}2/8,2/8,
{12}4/7,6,5,3,2,1,
{4}8bx,5/7,2/4,3/8,
{8}2h[4:1]/7h[4:1],,,,
{48}2/7,,,3/6,,,4/5,,,,,,2x/7x,,,,,,,,,,,,
{12}1b,,1,5,,5,3,,3,7,,7,
{8}1-5[8:1],,6,,8-3[8:1],,1,,
{8}2x,,3/8,,6/5,,1/5,,
{12}2/4,,3,4,,1,6-1[8:1],,,3,,,
{12}4x/8x,,,6,,5,7,,8,6,,,
{12}1/5,,,3,,4,2,,1,3,,8,
{4}8x-4[8:1],2/8,1-5[8:1],1/6,
{4}7-3[8:1],2-5[8:1]/7,2/8h[4:1],,
{12}4/8,,7,5,,2,4,,1,5,,3,
{4}8x<5[8:1],2,1>4[8:1],7,
{4}8x-5[4:1],5x-2[4:1],2x-7[4:1],7x-4[4:1],
{4}4x>5[4:2],,,1hx[4:1],
{12}8,,,7,,5/6,,,6,3/7,,,
{12}1/8,,,2,,4/3,,,3,2/6,,,
{4}8/1,3/4,5/6,8-4b[8:1]/1,
{4}8/4`Cf,3,2,1,
{1}5xq8[4:6]*q8[4:6],1x-4[4:2]*-4[4:2],
{4}3/7,,1/5,,
{4}2/6,2/6,3/7,4/8,
{4}8,1<6[8:1],2b,4,
{4}1,8>3[8:1],7b,5,
{4}3-1[8:1],3/4,6-8[8:1],5/6,
{4}3b,1/5b,
{24}2x,3x,4x,5x,6x,7x,
{4}8bxw4b[70.5#24:1],,,Cf,
