&title=メクルメ
&artist=篠澤 広 (Prod: Frog96)
&first=0.13
&des=Aza
&lv_5=14+
&inote_5=(160)
{4}6h[4:1],4h[4:1],2h[4:1],{12}6,8h,4,{4}6h[4:1],{12}8h[4:1],,4h,4h,2,6h,{4}4h[4:1],1h[4:1],3h[4:1],5h[4:1],{12}1,7h,3,{4}1h[4:1],{12}7h[4:1],,3h,3h,5,1h,{4}3h[4:1],2h[4:1],4h[4:1],{12}8h[4:1],,{10}B6,B5,{12}B1,{10}B3,Ch[10:7],,{12}E4,E3,E2,E1,E8,E7,E6,,,4h,2,5s1[4:1],3,6h,4,4,,,3v6[4:1],7h,2,6h,7h,8h,{4}8h[4:1],{16}3,4,1,6,5,8,4,1,
{8}2bv3[8:1],,4,5h[8:1],{16}4,6,4,6,{8}5h[8:1],7v5[8:1],5,4,3,2h[8:1],{16}4,3,4,3,{8}5h[8:1],4-2[8:1],6-4[8:1],,,1h[8:1],{16}8,2,{8}8,3/7-5[8:1],3>8[8:1]/7,,,4,5h[4:1],,,{16}8,4,1,5,
{8}2b,6,4,{16}7,5,8,4,7,5,6,5,4,5,{8}6<1[8:1],5,4-8[8:1],3,2h[4:1],,{16},1,2,1,{8}3,{16}6,5,7,,2,1,3,8,2,8,1,8,7,8,{8}1>4[8:1],2,{16}1,7,6,5-1[8:1],{8},4,3,2,1/7,{16}6,5,6,5,7<4[8:1],8,7,8,{8}7,8,1,2>5[8:1],1,{16}2,1,8,7,{8}6-1[8:1],1-4-7[4:1],,3x,3x,2,1,5-1b[8:1],6,2,3>1[8:1],7<5[8:1],3x<5[8:1],7x>1-5[4:1],3x,7x,,4,3,2,
1/7,7/5,3/5,{16}1,2,1,3,1,4,1,5,1,6,{8}1h[8:1],7h[8:1],5h[8:1],3h[8:1],7h[8:1],5h[8:1],1h[8:1],4h[8:1],8,2/4,4/6,{16}7,8,4,,2,1,5,,7,8,{8}3h[8:1],4z8[4:1],5s1b[8:1],6,,,2x/7x,2x/7x,8,2/4,4/6,{16}8,7,8,6,8,5,8,4,8,3,{8}8h[8:1],2h[8:1],4h[8:1],6h[8:1],8-4[8:1],5,3,1,7-3[8:1],8,7,A1/D2/A2,A5/D5/A4,A8/D8/A7,2/3,5/6,1/8,3/5b,7w3[8:1]/6b,1b/3w7b[8:1],{2},
{8}4-2[8:1],8-4[8:1],4,8V62[4:1],1,2V84[4:1],3,4-6[8:1],3,2-4[8:1],1,2V86[4:1],7,6-2-4[4:1],5,4-8[8:1],5,6-4[8:1],7,6-8[8:1],2-4[8:1],6-2[8:1],2V84[4:1],6,4b,,,,7/8,1/2,3/4,5/6,
{8}7-1[8:1],3-7[8:1],7-5-3-1[8:3],3,8,1-5[8:1],8,7-1[8:1],6,7-3[8:1],3V15[4:1],4,5-7[8:1],4,3,2,1/8,7,5,4/6qq7[4:1],,1,2,3v5[8:1],,8,6,4,{16}4-8[8:1],3/5,2/6,,{4}4b,
{8}1/2-6[8:1],3,2>4[8:1],8<6[8:1],2,8-4<6-2[8:3],4,3,2<6[4:1],3,4>2[8:1],5,4,5,6<8-4[4:1],1,2-6[8:1],3,2<8-4[4:1],5,4,5,6>8[4:1],7,8b,,,,1/2,3/4,5/6v3[8:1],7/8,,2pp1[4:1],1,2/7<5[8:1],8,7,8,4,2/6v4[8:1],4-8[8:1],2/6,1>5[4:1],,1,7,6,3/5,4,2-6[8:1]/6,2/6-2[8:1],,1,8,1/7-3[8:1],,8,2,4,E6,E5,E4,,{1},{2},
{8}4b<8[8:13],3h,2h,1h,2h,3h,4h,5<8b[4:3],4h,3h,4h,5h,6h,5h,4h,2h,1>5[8:13],8h,7h,6h,7h,8h[8:1],,1x,2b>5b[8:5],1hb[512:1],8hb[512:1],7hb[512:1],6hb[512:1],7hb[512:1],6hb[512:1],7hb[512:1],8<4[8:13],1h[8:1],,2h,1h,8h,1h,8h,7<4b[8:5],8h,1h,2h,1h,8h,1h,2h,3>7[8:9],4h,5h,6h,5h,4h,3h,2<7b[4:1],,3h,4h,5h,4-8b[8:1],,{4},
{16}1/5,,2h[16:3],4h[16:3],,,3h[16:3],5h[16:3],,,4h[16:3],6h[16:3],,,5h[16:3],7h[16:3],,,6h[16:3],8h[16:3],,,7h[16:3],1h[16:3],,,8,2,{4}1b,
{16}1-5[8:1],,8,7,1>3[8:1],,7,6,1<7[8:1],,6,5,1>3[8:1],,4,5,1-5[8:1],,6,5,1,,4,,2v4[8:1]/6-1[8:1],,4/8,,2/6,,,,8-4[8:1],,1,2,8<6[8:1],,2,3,8>2[8:1],,3,4,8<6[8:1],,5,4,8-4[8:1],,3,4,8,,5,,7-4[8:1]/3v1[8:1],,5/1,,7/3,,,,2-6[8:1],,1,8,2>4[8:1],,8,7,2<8[8:1],,7,6,2>4[8:1],,5,6,2-6[8:1],,7,6,2,,5-1[8:1],,3/7,,1/5,,3,,,,7-3[8:1],,8,1,7<5[8:1],,1,2,7>1[8:1],,2,3,7<5[8:1],,4,3,7-3[8:1],,2,3,7,,4-8[8:1],,6/2,,8/4,,6,,,,5-1[8:1],,1,2,5<7[8:1],,2,3,5>3[8:1],,1,2,5<7[8:1],,1,8,5-1[8:1],,1,2,5,,4,,5w1[8:1]/7,,4/6,,5,,,,4-8[8:1],,8,7,4>2[8:1],,7,6,4<6[8:1],,8,7,4>2[8:1],,8,1,4-8[8:1],,8,7,4,,5,,4w8[8:1]/2,,5/3,,4,,,,{8}2/6,{16}7,5h[8:1],,,5,3h[8:1],,,3,1h[8:1],,,1,7h[8:1],,,7,5h[8:1],,,{8}5,E7,C,E3,,{4},,,,
{8}1bx/7bx,3bx/5bx,2bxw6[8:1]/8bx,4bx/6bxw2b[8:1],{2},
{8}3-8[8:1],7-4[8:1],3-6[8:1],7-2-5-8b[8:3],3,7,8,1-4[8:1],2-5[8:1],1-6[8:1],2,1,4-1[8:1],8-5[8:1],4-7-2-5b[8:3],8,4,6,7,8,1-6-3-8b[8:3],2,3,4,5b>1[8:1]*<1[8:1],,,,3/4,1/2,7/8,5/6,
4-1[8:1],2-5[8:1],4-7-2[4:1],2,4,3,4,5-2[8:1],1-6-3-8b[8:3],5,1,3,4,5,6,7,1/2,8,4,5/3pp2[4:1],,8,7,6V84[4:1],,1,3,5,{16}5w1[8:1],6/4,7/3,,{4}5b,
{8}6-1[8:1],2-5[8:1],6^4-7^8-3b[2:1],2,6,2,3,4,5-2^4-7b[2:1],6,5,8,7>2-5b[8:3],6,5,4,5,6-1[8:1],3-8[8:1],6^7-4^5-2b[2:1],3,6,1,2,3b,,,,
4/5,6/7,8/1-5[8:1],2/3,,7qq8[4:1],8,7/2>4[8:1],1,2,1,5,7/3v5[8:1],5-1[8:1],7/3,8<4[4:1],,8,2,3,6/4,5/7,1/7,1/3,3/5h[8:1],7h[8:1],5h[8:1],1h[8:1],,2/6,3/7^6-8-5-1[2:1],4^3-5-2-6b[8:3]/8,{2},{4},{8}2-4[8:1]/4,8,2-8[8:1]/4,7,2-6[8:1]/4,6,2/4,7,2V46[4:1]/8V62[4:1],1,2/8,,,,7<5[8:1]/5,1,7>1[8:1]/5,2,7-3[8:1]/5,3,7/5,2,7<3[4:1]/1>3-7[4:1],8,7/1,,,{16}8x,1x,2x-7-4-1-6[1:2]/6,3/7,4/8,1/5,2/6-3-8-5-2b[4:7],,
