&title=圣少女领域
&artist=ALI PROJECT
&first=0.03
&des=おにねこ
&whobpm=137
&lv_5=13
&inote_5=(137)
{1},
{12}2,3,4,5,6,7,
{16}4h[8:1]/8,,6,4,5,,2,4,3,,7,5,6,,2,4,
{12}3,3,3,
{16}
24,,
1>4[32:4],,4b,,,,7>2[32:4],,6,,5h[8:2],,,,6-3[16:2],,5,,4-7[16:2],,,,8h[8:2],,,,1,8,2,1,3,,
8<5[16:2],,5bp4[16:5],,,,3,,2,,1>4[16:2],,,,6,,7,,8-5[16:2],,4,,3-1[16:2],,2,,4,,5,,6h[8:1],,
5pp3[16:6],,3b,,,,3,,2,,1h[16:4],,,,3-6[8:1],,4,,5-2[8:1],,,,1h[8:2],,,,8,1,7,8,6,,4,,
38,,2,1,2,,8-3[16:2],,7-2[16:2],,,,,,,,6,,7,8,7,,1-4[16:2],,2-7[16:2],,,,,,,,
8b-4[8:3],,,,6,,,2,,,2,,1h[8:2],,,,,,5-1[8:3],,3,,,7,,,7,,5b,,,,
54,,
6,,7,,8,,1-4[8:2]/2<7[8:2],,,,,,,,,,6,,5,,4,,3qq4[16:4]/4,,,,4<6[8:1],,,,,,
8,,7,,6,,3q8[8:2]/5<8[8:2],,,,,,,,,,1,,2-5[16:2],,3,,4>7[16:4],,,,,,,,5,,
4,,3,,2,,1>4[8:1]/6,,8<5[8:1],,,,,,,,1,,2,,3,,8<3[8:3]/4,,,,2,,,,
2h[8:4],,,,,,8,7,6pp2[8:3],,,,5,,,,4h[8:4],,,,,,7,6,5pp1[8:3],,,,3,,,,
2,,
3,,3>8[8:1],,5,,7,,7<4[8:1],,,,8,,,,1,,17,,26,,3V52[16:4],,4,,,,6,,,,
6,,6<1[8:1],,4,,2,,2>5[8:1],,,,1,,,,6,,36,,74,,8V64[16:3]/5V31[16:3],,,,,,,,,,
5,,4-1[8:1],,3,,6qq3[16:5],,7,,,,,,,,1,,2-6[8:1],,5,,6qq3[16:6],,,,,,,,
8h[8:4],,,,,,1,2,3qq8[8:3],,,,4,,,,5h[8:4],,,,,,2,3,4qq8[16:5],,,,6,,,,
{8}
5b,,7h[8:1],5h[8:1],6h[8:1],3h[8:1],4h[8:1],2h[8:1],7-3[8:1],1,3-7[8:1],5,4,4,8,,
45,,2h[8:1],4h[8:1],3h[8:1],6h[8:1],5h[8:1],7h[8:1],2-6[8:1],8,6-2[8:1],4,5,5,1,,
5h[8:1],6h[8:1],7h[8:1],8h[8:1],1p5[16:3],,,,4h[8:1],3h[8:1],2h[8:1],1h[8:1],8q4[16:3],,,,
7qq4[8:3],,,,{12},3,2,{16}1,,1,,
7bV16[4:1]/3b,,,,5,,4,,3bV14[4:1],,,,5,,6,,
{12}7,6,5,4,3,2,
{16}15,,1,2,3h[8:2],,1,8,7h[8:2],,2,3,4h[8:1],,7,6,{12}52,3,4,{16}2>5[8:1]/5,,5qq4[32:5],,
2,,,,6,,7,,8<5[8:1],,5pp6[32:5],,,,,,4b,,3,5,4b,,3,5,4b,6,5,7,4>1[8:1],,1<7[8:1],,
4,,,,5,,6,,4qq7[16:5],,,,6,,7,,8<5[8:1],,8,,1>4[16:2],,1,,6,,7,,8-4[8:1],,4pp6[32:5],,
8,,,,3,,2,,1-5[8:1],,5qq3[32:5],,,,,,6b,,7,5,6b,,7,5,6b,4,5,3,6h[8:1],,1,,
83,,2,1,3,,8>2[16:2],,7q3[16:2],,,,,,,,15,,7,8,6,,1q6[16:3],,2>5[16:3],,,,,,,,
3,,5,,4qq4[4:1],,,,4pp4[4:1],,,,,,,,
8,,3,,5pp5[4:1],,,,5qq5[4:1],,,,,,,
1,1,,7,,5qq3[4:1],,,,5v8[4:1],,,,,,,,
3pp1[8:4],,,,,,8,,7,,6,,5h[8:3],,,,1h[8:1],,,,{12}15,62,73,{4}8-5[8:1]/4-1[8:1],,,,,,,,
