&title=雪は何色
&artist=Kotoha
&first=0
&des_5=七月の雪はきれい
&lv_5=14
&inote_5=(179){1},
{8}5/4,
3/6,,1/2-5[16:1],{4},{8},8/7-4[16:1],
{4},{8},5/6-1[16:1],{4},{8},2,
3,4-2[8:1],,5/4-6[8:1],,8/4-2[8:1],,4pp6[4:1]*qq2[4:1],
{4},,{8},3b/6b,{4}6b/3b,
{8}2,1<6[8:1],,1>4[8:1],,1/5-8[8:1],,5-2[8:1],
,5/1-6[8:1],,1/4-1[8:1],,4,,6,
7,8<5[8:1],,8>3[8:1],,8/4-6[8:1],,4-2[8:1],
,4w8[8:1],,4,{2},{8}1,
1h[8:13],{4},,{8},7,
,7h[2:3],{4},,,{8}5h[4:7],
{4},,,{8}1,
,1h[8:5],{4},,,{8}8,
8h[8:13],{4},,{8},2,
,2h[2:3],{4},,,{8}5h[8:9],
{4},,,{8}4,
,4,6/3,{16}4,5,{8}4,2/7,{16}1-5[8:1],8,1,8,
{4}1b,{8}7,7-3[8:1],,7-5[8:1],,7-1[8:1]/4-1[8:1],
,7/4,,7h[4:1],,1,8/2,3,
{4}4-8[8:1],{8}3,2-6[8:1],,2-4[8:1],,2-8[8:1]/5-8[8:1],
,5/2,{2},{4}1/8-4[8:1],
8b,{8}2,2-6[8:1],,2-4[8:1],,2-8[8:1]/5-8[8:1],
,2/5,,2h[4:1],,8,1/7,6,
{4}5-1[8:1],{8}6,7-3[8:1],,8,{4}1-5[8:1],
{8}7pp4[2:1],{4},,,{8}2,
{4}3bqq5[2:3],{8}7,6bpp4[8:9],{1},{2},{8}2,
1-5[8:11],,8,,2,,7,
,3,,6,,4,{4},{8}4bw8[8:1],
{2},{8}8,1qq4[8:3],2/7,
{4}1,{8}6,5pp1[8:5],,2,3,4h[8:3],
{2},{16}8,7,6,5,8,1,2,3,
5,6,7,8,5,4,3,2,8,7,6,5,3,2,1,8,
{8}7bw3[8:1],{2},{8}3/5,4-8[8:1],3,
{4}4/2,{8}2/5,2p5[8:1]/5q2[8:1],,2qq4[8:5]/5pp3[8:5],{1},{8},4/5,
{4}5/4V28[8:1],{8}4/7,7-3[8:1],,7/1w5[8:1],,1b,
{4},{8},4,3,5/2h[8:1],6,7h[4:1],
,3,2,1-5[8:1],,1/7V53[4:1],,7,
{4},{8},2,3q5[4:1],4,5/3,6h[2:1],
{4},{8}3,2V46[4:1],,6>1[4:1],{4},,{8},3/4>1[8:1],
5,4/6-1[8:1],5,6/3-7[8:1],
,3,4,5h[4:1],,4bw8[8:1],,4b,
{4},{8}3/1-5[8:1],2,{4}1b/8,{8}6/8-4[8:1],7,
{4}8b/1,{8}3,2,{16}1,8,7,6,5,4,3,2,
{8}1bw5[8:1],{2},{8}5,4pp1[8:3],3/6,
{4}4,{8}7,8qq4[8:5],,3,2,1h[8:3],
{2},{16}5,6,7,8,5,4,3,2,
8,7,6,5,8,1,2,3,5,6,7,8,2,3,4,5,
{8}6bw2[8:1],{2},{8}2/8,1-5[8:1],2,
{4}3/1b,{8}4,4/5-2[8:1],,5/7v4[4:1],,7b/4<3[8:5],
{4},,,{8},6/5,
{4}5-8[8:1],{8}5/4,4-7[8:1],,4/2-5[8:1],,2qq4[2:3],
{1},{4},,{8},5,
5,5pp5[8:3]*qq5[8:3],
{4},,,{8}7v6[8:1],2v3[8:1],
{2},{8}1-5[8:1]/8-4[8:1],2/7,{4}1b/8b,
{8}3,4<7[8:1],,4>1[8:1],,4/8-5[8:1],,8-3[8:1],
,8/4-7[8:1],,4/1-4[8:1],,1,,7,
6,5<8[8:1],,5>2[8:1],,5/1-7[8:1],,1-3[8:1],
,1-5[8:1],,1/5>3[8:1]*<7[8:1],{2},{8}8,
8<5[8:1],,8>3[8:1],,8/4-7[8:1],,4-1[8:1],
,4-8[8:1],,3/4-2[8:1],,4/5-8[8:1],,5/3,
2,1-6[8:1],,2/1-4[8:1],,8/1-5[8:1],,1/5qq2[2:1]*pp8[2:1],
{1},{8}4,
4h[1:1],,5,,6,,7,
,7h[8:5],{4},{8}6,5,4-8[8:1],3,
{4}4/2,{8}1,1p5[8:1],,1,,8,
,8>6[8:3],{4},,,{8}3,
4>1[8:1],5,4/6,,6,7/2,1/8-4[8:1],
,8<4[4:1],,3,2,1,8-4[8:1],7,
{4}8/6-2[8:1],{8}6,3-8[8:1],,3,,5pp1[8:3],
,5,{4},{8},4,5-1[8:1],6,
{4}7/5,{8}7,7/8-4[8:1],,8b/1,,2/1-5[8:1],
,1b/8,,6h[2:1],,5,4,3,
{4}3>8[8:1],{8}3/4,5-1[8:1],,4-8[8:1],,7pp4[8:3],
{4},,,5/4-8[8:1],
4/7-3[8:1],{8}7/2,1-3[8:1],,1/8-4[8:1],,8/7-5[8:1],
,7/8,,3h[8:5],,4,5,6,
{4}7h[8:3],{8}2,3qq5[8:7],,7,{4}6pp4[2:1],
,,,{8},6,
{4}7b-4[8:1],{8}8,8b-4[8:1],,1,{4}1bpp4[8:5],
,,,{8},8-4[8:1],
7,8/6-2[8:1],,6b/5-1[8:1],,5b/4-8[8:1],,4b/3,
,3,2,1>8[1:1],,5,6,7h[1:1],
{4},,,{8},2,
3,4-1[8:1],,4/5,,6,,7h[8:5],
{4},{8},3,3<6[2:1],{4},{8}6,
6<1[2:1],{4},{8}1,{2}1>5[8:7],
{4},,,{8},6,
7,8h[4:1],,3h[2:1],,6h[8:1],,5<1[8:5],
{4},{8},1,1>5[2:1],{4},{8}5,
{1}5<4[8:11],
{4},,,{8},5,
5,5>3[4:1],,3>1[4:1],,1<7[4:1],,7<3[2:1],
{4},,,{8},4,
4,4<6[4:1],,6<8[4:1],,8>2[4:1],,2,
{2},{6}5b/7b,2b/8b,1b/7b,
2b/4b,1b/3b,6b/4b,5b/3b,6b/8b,2b/4b,
{4}1h[2:1]/8h[2:1],{2},{8}2/7,2h[8:5]/7h[8:5],
{4},,,{8}3/6,4h[8:3]/5h[8:3],
{2},{4}6h[8:3],{8}4,3>8[8:1],
,3/7-3[8:1],6,7/5,,2-6[8:1],1,2/4,
,8-4[8:1],1,8/2,,2,3,4h[2:1],
,{16}8,7,{8}6,5h[4:1],{4},{8},{16}4,5,
3,6,5,7,2,4,2,7,5,7,2,1,3,7,8,6,
3,4,1,6,5,8,4,5,1,8,2,5,3,4,2,5,
{6}4h[6:1],5h[6:1],{12}6,5,{6}6h[6:1],7h[6:1],8h[6:1],
{8}1h[3:2],{4},{16}2,3,{6}4,4,4,
4/5,6/5,{12}7,8,{6}7,8/1,1/2,
{32}2,3,4,5,6,7,8,1,2,3,4,5,6,7,8,1,2,3,4,5,6,7,8,1,2,3,4,5,6,7,8,1,
{1}2b>2[4:11],
3,
5,
7,
4qq4[1:2],
8,
8qq8[4:7],
4,
{4},{8},6,5,4-8[8:1],3,4/2,
,1,1,1-6[8:1]*-7[8:1],,1-4[8:1]*-3[8:1],,1,
{4},{8},3,4,5-1[8:1],6,5/7,
{4},{8}8,8<4[4:1],,4>8[4:1],,8,
{4},{8},3/4>1[8:1],5,4/6-1[8:1],5,6/3-7[8:1],
,3,4,5h[4:1],,4bw8[8:1],,4b,
{4},{8}3/1-5[8:1],2,{4}1b/8,{8}6/8-4[8:1],7,
{4}8b/1,{8}3,2,{16}1,8,7,6,5,4,3,2,
{8}1bw5[8:1],{2},{8}5,4pp1[8:3],3/6,
{4}4,{8}7,8qq4[8:5],,3,2,1h[8:3],
{2},{16}5,6,7,8,5,4,3,2,
8,7,6,5,8,1,2,3,5,6,7,8,2,3,4,5,
{8}6bw2[8:1],{2},{8}8,7,1,
{4}2b-6[8:1],{8}8b-4[8:1],8b,,5bpp5[4:1]*qq5[4:1],,5bw1[2:1],
{4},,,{8},7/8,
{4}8-5[8:1],{8}8/1,1-6[8:1],,1/3-8[8:1],,3qq5[4:7],
{1},{4},,{8},6qq3[8:7],
7,8h[8:5],
{4},,,{8}7,8,
1,2h[8:5],,1,8-4[8:1],7,{4}8b,
{8}3,4<7[8:1],,4>1[8:1],,4/8-5[8:1],,8-3[8:1],
,8/4-7[8:1],,4/1-4[8:1],,1,,7,
6,5<8[8:1],,5>2[8:1],,5/1-7[8:1],,1-3[8:1],
,1v4[4:1]*v6[4:1],,1,{2},{8}8,
8<5[8:1],,8>3[8:1],,8/4-7[8:1],,4-1[8:1],
,4-8[8:1],,3/4-2[8:1],,4/5-8[8:1],,5/3,
2,1-6[8:1],,2/1-4[8:1],,8/1-5[8:1],,1/5qq2[2:1]*pp8[2:1],
{1},{8}5/4h[8:15],
5,,6,,8,,7,
,1,,8,,7,8,1bw5[8:19],
