&title=狮子舞
&artist=M2U&Pica
&first=0.02
&des=Oat
&lv_5=14
&inote_5=(165){4},{8},,,,,,1>4[4:1],
4,5,6,7<4[4:1],4,3,2,
{4}1qq4[2:1],{8}4x,5x,6x,7x,{4}8x,
{8}8-4[4:1],5,4,3,2-6[4:1],5,6,7,
{2}8pp5[2:1],{4}4x,3x,
{8}2,2h[4:1],4,5,6,6h[4:1],4,3,
2-5[8:1],4,2/6,8,{4}7p5[8:3],4,
2h[4:1],{16}4,3,2,1,{4}8/3h[4:1],{16}5,4,3,2,
{2}1/4h[2:1],{4}8h[4:1],{16}4,3,{8}2,
{16}6bh[16:3],,,4,{8}5,3,{4}2-5[8:1],{8}5,6,
7-4[8:1],4,3,2,{16}1-5[8:1],,,8,{8}1,7,
{16}6h[16:3],,,4,{8}5,3,6/4,7,8-4[8:1],8,
3,3h[8:1],7-5[8:1],7,{4}C,{16}5,4,6,4,
5/3h[16:3],,,5,{8}4,6,{4}7-4[8:1],{8}4/7,3,
2-5[8:1],5,6/2,7,8>4[8:1],4<8[8:1],{4}8,
{16}3h[16:3],,,5,{8}4,6,{4}4/7h[4:1],{8}1-5[8:1],2,
7-4[8:1],7,2-4[8:1],1,{16}8,7,6,5,4,3,2,1,
{8}4-1[8:1],{16}3,5,{8}4-7[8:1],6,{4}4,{8}4,3,
{16}6,6,4,5,2,2,4,3,{4}6-4[8:1],3,
{16}2,4,3,5,4,6,5,7,2,4,3,5,4,6,5,7,
{8}1,{16}2-5[8:1],8,3,4,{8}2,6,{16}7-4[8:1],3,5,1,{8}7,
{16}2-5[8:1],,,4,{8}2,6,{4}7h[4:1],{16}5,4,3,2,
{8}6h[8:1],{16}3,5,4,7,5,6,3,5,1,6,{8}4,5/6,
4/7,{16}3,5,,6,{8}4,{4}8b,{16}2,1,3,8,
{8}4h[8:1],{16}6,5,7,4,{8}8h[8:1],{16}1,7,3,4,2,8,5,6,
{8}1b,{16}7,4,6,5,7,5,{8}4/6h[8:1],{16}3,5,{8}8,{16}6,4,
{8}1,{16}2,5,{8}8,{16}7,4,{8}1,{16}2,4,{8}8,6h[8:1],
1,{16}2,5,3,7,4,6,{8}1-5[8:1],{16}2,8,{8}1,7,
8/4h[2:1],8,8,8,{32}8,7,6,5,4,3,2,1,8,7,6,5,4,3,2,1,
{4}8,{8}7,{16}E7,B6,{8}B5,4,3/5,2/6,
{4}7pp4[2:1],3x,{2}3x,
{4}1,{8}2,{16}B3,B4,{4}E5,7-4[8:1],
1qq4[2:1],5x,5x,{8}5,6,
{4}7,5/3,2,6/4,
7/4,6/5,2/5,4/3,
2-5[8:1],6,8-5[8:1],4,
{8}2-5[8:1],6,7,8<5[8:1],5,4,3,2,
{4}1-5[8:1],8,7-5[8:1],8,
2-4[8:1],1,8-4[8:1],1,
5/3h[4:1],1,4/6h[4:1],8,
{16}E2,E3,E4,E5,E8,E7,E6,E5,{4}1x-5[8:1],{8}6,7,
{4}8h[4:1],1,{2}2-5[8:1]/8-5[8:1],
{4}1h[4:1],8,{2}7-4[8:1]/1-4[8:1],
{8}2>5[4:1],,,8,7pp6[2:1],{16},,,,B2,B3,
{4}B4,{8}5,4,3,2,{4}1-5[8:1],
8b<4[4:3],{8}5,4,3,2,1,8,
{4}7b>4[4:3],{8}4,5,6,7,8,1,
{4}2b>8[4:3],{8}8,1,2,3,4,5,
{4}6b<5[4:3],{8}4,5,6,7,{4}8,
{8}7-4[8:1],5,7/3,1,2-5[8:1],4,2/6,8,
7p5[4:1],5,4,3,{4}2q4[4:1],5,
7,{16}1/4,8,7/3,6,{4}5/2b,{16}8/5,1,2/6,3,
{2}4/7bh[4:1],{4}1h[4:1],{16}5,6,{8}7,
3bh[8:1],{16}5,4,{8}6,3,7b-4[8:1],6/5,4/7,3,
2b-5[8:1],4/3,5/2b,6,7b-4[8:1],{16}8,1,{8}7,2,
3bh[8:1],{16}5,4,{8}6,3,2b-5[8:1],1/8,6/2,7,
4/8b-3[8:1],2,4/8b-5[8:1],6,{4}8/4,{16}3,5,4,5,
{8}3b/6h[8:1],{16}4,5,{8}3,6,2b-5[8:1],3/4,5/2,6,
7b-4[8:1],5/6,3/7b,2,1b<5[8:1],5>1[8:1],{4}1,
{8}6bh[8:1],{16}4,5,{8}3,6,5b/2h[8:1],7,8-4[8:1],8,
8/2-5[8:1],2,2/7-5[8:1],7,{16}1b/7,2,3,4,5,6,7,8,
{8}1/5b-8[8:1],{16}6,4,{8}5-2[8:1],3,{4}5,{8}5,6,
{16}3,5,4,4,7,5,6,6,{4}3b-5[8:1],6/3,
{16}7,7,5,6,3,3,4,2,7,5,6,6,3,4,2,2,
7,1,4,3,8,2,6,5,{32}8,7,6,5,4,3,2,1,{4}8/4b,
{32}1b/8b,2/7,3/6,4/5,,,,,{16}2,5,{32}3,4,{16}3,7,4,{32}6,5,{16}6,2,5,3,4,
{8}3h[8:1],{16}6,6,2,5,3,4,1,8,2,7,{8}1,2/8,
{32}1b,2/8,3/7,4/6,{8}5,{16}3,6,6,6,2,5,5,5,3,4,4,4,
2,5,4,6,8,7,1,5,3,4,2,8,5,6,1,7,
{8}3b,{16}7<4[8:1],1,6,5,{8}7,2b-5[8:1],{16}3,4,{8}2,6,
{16}7b,5,6,5,8b,4,5,4,1b,3,4,3,{8}8b,6/2,
8b,{16}7-4[8:1],4,6,8,{8}7,3b,{16}2-5[8:1],8,4,6,{8}2,
{4}7,{16}5,6,4,5,{32}3,4,{16}3,5,2,{32}6,5,{16}6,{8}4,
{32}8b,7/1,6/2,5/3,{8}4,{16}7,4,{32}6,5,{16}6,2,5,{32}3,4,{16}3,7,4,6,5,
{8}4/6h[8:1],{16}3,3,7,4,6,6,2,4,3,3,{8}8,7/1,
{32}8b,7/1,6/2,5/3,{8}4,{16}6,3,3,3,7,4,4,4,6,5,5,5,
7,4,5,3,1,2,8,4,6,5,7,1,4,3,8,2,
{8}6b,{16}2-6[8:1],4,1,8,{8}2,7b-4[8:1],{16}8,4,{8}7,1,
{16}2b,4,3,5,1b,5,4,6,8b,6,5,7,{8}1b,3/7,
1b,{16}2-5[8:1],5,3,1,{8}2,6b,{16}7-4[8:1],1,5,3,{8}7,
{4}Ch[4:3],{16},,,,,,,,5,6,{8}7,
{16}3h[16:3],,,5,{8}4,6,{2}7-4[8:1],
{8}2-5[8:1],2,1,8,{2}7-4[8:1],
{16}3h[16:3],,,5,{8}4,6,{4}3/5,1-5[8:1],
6h[8:1],2-4[8:1],C,{8}5,5,
{16}4/6h[16:3],,,4,{8}5,3,{4}2-5[8:1],5,
7-4[8:1],1-5[8:1],1<6[8:1]*>4[8:1],1,
{16}3h[16:3],,,5,{8}4,6,{2}7h[4:1]/1-5[8:1],
{8}8<4[4:1],4,3,2,{2}1b-5b[8:1]*s5[8:1],
E
