&title=ムテキメモリー
&artist=桃寝ちのい / 桜苺ちる
&first=-0.9
&des=srtsalt
&des_5=srtsalt
&lv_5=13
&inote_5=(154){4},,,,{8}5,
4,{4}5x/4h[8:1],5/3h[8:1],{8}5x,2,
{4}5/2h[8:1],5x/3h[8:1],{8}5,4,{4}5x/4h[8:1],
{8}4,5,{4}4x/5h[8:1],4/6h[8:1],{8}4x,7h[8:1],
{32}E3,B3,{8},{32}E7,B6,{8},{32}E1,B1,{8},{32}B5,E5,{16},3x,2x,1x,8x,7x,
{8}5v8[8:1],4,{4}5x,2>5[8:1],{8}2x,6,
{4}7>2[8:1],7x,{16}3,5,4,6,{8}3x,{16}5,4,
{8}6,7,8x/1x,2,3/4,5h[8:1]/4h[8:1],,3/6,
7-1[8:1],2-4[8:1],7V51[4:1],2,7,3,{4}2b,
{8}4,4,5,4,3h[4:1],{4},{8}5,
5,6,{4}7h[4:1],{16}E5,E4,E3,E2,{4}E1,
{8}8,8,1,2,1h[4:1],{4},{8}6qq4[4:1],
,4<8[4:1],,1,{16}E1,E2,E3,E4,{4}E5,
{8}6-1[8:1],1V75[4:1],6,4,3h[4:1],{4},{8}2-5[8:1],
5-3[8:1],2,{4}7,{16}E1,E8,E7,E6,{4}E5,
{8}3,3,5,4,6h[2:1],{4},{8}4h[8:1],
,6-2[8:1],4-8[8:1],6x,{4}4x,7b,
8v5[8:1]/2>4[8:1],2/8,{8}7,7qq4[2:1],,3h[8:1],
,3,2,1h[8:3],{16}E5,E6,E7,E8,{4}E1,
2-4[8:1]/7v5[8:1],2/7,{8}2,2pp5[2:1],,6h[8:1],
,6,7,8h[8:3],{16}E5,E4,E3,E2,{4}E1,
6/4h[4:1],{8}5,4,5h[4:1],{4},{8}4,
4,3,{4}2h[4:1],{16}E1,E8,E7,E6,{4}E5,
{8}3,3,5,2,4h[2:1],{4},{8}3h[8:1],
,2-6[8:1],6-8[8:1]*-4[8:1],2,{4},1b,
5xh[2:1],{32}E4,D4,{4},{16},{8}6xh[8:1],{32}E3,A3,{16},{8}7xh[8:3],
{4},{32}A1,E2,{16},{8}8xqq5[8:3],{4},{32}E3,A3,{16},,,{4}4xh[8:1],
{32}3xh[8:1]/D8,E8,{16},,,{4}2xh[8:1],{32}1x/A6,E6,{16},{8}1xpp4[8:5],
{4},{32}E6,A5,{4},{16},,,{4}5b,
{8}6-1[8:1],1<5[16:3],6,2,{4}3qq1[8:1],{8}4,5,
{4}6-3[8:1]*-8[8:1],6,5v8[8:1]*v2[8:1],5,
{8}4,3,2,1,8,7,6,5,
4p8[8:1],4,{16}7,7h[16:3],{8},{16}1x,6x,2x,5x,{4}3b,
{8}4h[8:1]/6xh,7xh,4h[8:1]/6xh,7xh,4h[8:1]/8xh,7xh,{4}4h[8:1]/6xh,
{8}5h[8:1]/3xh,2xh,5h[8:1]/3xh,2xh,5h[8:1]/1xh,2xh,{4}5h[8:1]/3xh,
{8}4h[8:1]/6xh,7xh,4h[8:1]/6xh,7xh,4h[8:1]/8xh,7xh,{4}4h[8:1]/6xh,
{8}5h[8:1]/3xh,2xh,5h[8:1]/3xh,2xh,{16}5x/3xh,6x,7x/2xh,8x,{4}1xh,
{8}7-4[8:1],8,7,1,2<7[8:1],3,{4}4h[8:1],
{8}5v8[8:1],4,5,3,2>5[8:1],1,{4}8,
{8}6-3[8:1],7,6,2,1<6[8:1],2,{4}3,
{8}4-7[8:1],7-5[8:1],4,8,1,2/8,{4}7b-4[8:1]/3b-8[8:1],
3b/7b,{8}6<1[8:1],1p5[8:1],6,2h[8:1],,3qq7[8:3],
,7,6,5,{4}4h[4:1],C,
{8}7v5[8:1]/8-4[8:1],6,{4}8/7,{8}1-5[8:1]/2v4[8:1],3,{4}1/2,
{8}7,7-4[8:1],,3,{16}A2,A1,A8,A7,A6,A5,A4,A3,
{4}2x-5[8:1],{8}2x/5,6,7,8v6[8:1],,1h[8:1],
,2-5[8:1],5>8[4:1],2,{16}8x,7x,6x,5x,{4}4x<8[4:1],
8>4[4:1],4V68[4:1],{8}8-2[8:1],2-6[8:1],3,4h[4:1],
,8h[4:1],,5xh[8:1],{16}1x,8x/4x,7x/3x,6x/2x,{4}1bx/5bx,
4h[1:3],{32}B5,A5,{4},{16},,,{32}B6,A6,{4},{16},,,{32}B7,
A7,{4},{16},,,{32}B8,A8,{4},{16},,,{32}B1,
A1,{4},{16},,,{32}B2,A2,{16},,,5xh[16:3],
{8},{16}6xh[16:3],{8},7xh[16:5],{16},8x,,1x,2x,3x,4x,5x,
{8}6x/7x-4[8:1],7,{4}7x,2<7[8:1],{8}2x,5,
{4}5pp7[8:1],5x,{16}E5,E4,E3,E2,{8}E1,{16}6,5,
{8}7,7,8x/1x,2,3/5,4h[8:1]/6h[8:1],,5/3,
2-8[8:1],6-4[8:1],2V48[4:1],6,2,6,{4}7b,
{16}6<1[8:1],{8},{16}5,{8},4,{16}3>8[8:1],{8},{16}4,{8},5,
6-1[8:1],1v7[8:1],{16}2,2,,3h[16:5],{4},C,
{16}7<4[8:1],{8},{16}8,{8},1,{16}2>5[8:1],{8},{16}1,{8},8,
7V51[4:1],5,{16}3,3,,2h[16:5],{4},E1/E8/E7/A7/A8,
{8}5/3h[4:1],{4},{8}6,4,4,5,5,
{16}3,3h[16:3],{8},8h[8:1],{16}1,1,7,2,6,3,{8}5h[8:1],4,
{4}7-3[8:1],7/1v6[8:1]*v4[8:1],1,8<4[4:1],
4>8[4:1],8-4b[8:1],4b,5,
6v8[8:1]/4v1[8:1],4/6,{8}7,7qq4[2:1],,1h[8:1],
,1,2,3h[8:3],{16}E5,E6,E7,E8,{4}E1,
3v1[8:1]/6-8[8:1],3/6,{8}2,2pp5[2:1],,8h[8:1],
,8,7,6h[8:3],{16}E5,E4,E3,E2,{4}E1,
{8}7-4[8:1],4V62[4:1],7,3,1h[4:1],{4},{8}8h[4:1]/2-5-3[4:1],
,2,{4}7,{16}E7,E8,E1,E2,{8}E3,4,
5-1[8:1],1V37[4:1],5,4,5h[4:1],{4},{8}6/4,
{16}7,5,{8}6,5/3,{16}2,4,{8}3-6[8:1],1/8,{4}3b,
8h[2:1],{32}D2,E2,{4},{16},{8}7h[8:1],{32}A2,B2,{16},{8}6h[8:3],
{4},{32}D3,E3,{16},{8}5pp8[8:3],{4},{32}D4,E4,{16},,,{4}1h[8:1],
{32}2h[8:1]/A8,B8,{16},,,{4}3h[8:1],{32}4/A7,B7,{16},{8}4qq1[8:5],
{4},{32}A6,B6,{4},{16},,,{4}8b,
{8}6qq5[4:1],6,2,2,1-7[8:1],1-5-3[4:1],{4},6x<2[4:1],
2x<6[4:1],{8}3,4,{4}5h[4:1],
{8}8,7,6,5,4,3,2,1,
7/8q4[8:1],8/7,{16}6,6h[16:3],{8},{16}E3,E2,E1,E8,{4},5xh[8:1]/Cfh[4:15],
5xh[8:1],6xh[8:1],7xh[8:1],
7xh[8:1],7xh[8:1],7xh[8:1],7xh[8:1],
5xh[8:1],5xh[8:1],6xh[8:1],8xh[8:1],
8xh[8:1],8xh[8:1],{16}8xh,7xh,6xh,5xh,{4}4xh,
{8}6V84[4:1],4,6,3,2<7[8:1],3,{4}4,
{8}3V15[4:1],5,3,6,7>2[8:1],6,{4}5,
{8}6-2[8:1],2>4[8:1],6,1,8<5[8:1],1,{4}2,
{16}3,4,{8}1,2/6,3/7,{4}8v5[8:1]/4v1[8:1],8b>3[8:1]/4b<7[8:1],
,{8}4/8,3,2/5,6/1q6[8:1],,7h[8:3],
,5,4,3,{16}2>5[8:1],1,3,1,{4}2,
{8}7v4[8:1]/8xv5[8:1],6,{4}8/7,{8}2v5[8:1]/1xv4[8:1],3,{4}1/2,
{8}7,7-4[8:1],,3,{16}A2,A1,A8,A7,A6,A5,A4,A3,
{4}2x>5[8:1],{8}6,7,8-3[8:1],3v6[8:1],,4h[8:5],
,7,8,1,{4}2h[4:1],4>8[4:1],
8<4[4:1],4V28[4:1],{8}8-6[8:1],6-2[8:1],5,4h[4:1],
,3h[4:1],,5,{32}4x,3x,2x,1x,8x,7x,6x,5x,{4}4x/8bw4b[8:1],
8b,{8}6/2>5[8:1],1,2/6,7q4[8:1],,7/2,
,1,2/8,7/3,{16}6,4,5,3,{4}6,
3q8[8:1]/4p7[8:1],3/4,6v1[8:1]/5v2[8:1],5/6,
{8}3,3-8[8:1],,7,{16}A6,A5,A4,A3,A2,A1,A8,A7,
{4}6x>4[8:1],{8}3,2,1-6[8:1],6-8[8:1],,5h[8:5],
,1,2,3,{4}4,8-4[8:1]/7-4[8:1],
8>3[8:1]/7>3[8:1],8/7,{8}5,4,3,2<7[8:1],
,6h[8:3],,5,{16}A4,B4,B3,B2,{8}B1,7,
8h[1:2]/1xh,2xh,2xh,2xh,3xh,3xh,,4xh,
,4xh,,5xh,6xh,5xh,4xh,3xh,
2h[8:1],6h[8:1],1h[8:1],4h[8:1],{16}8,1/5,2/6,3/7,{4}4b/8b,
{8}8/2-5[8:1],{16}3,1,{8}2,6,8/7V53[8:1],1,7,2,
{4}1-4[8:1]*v6[8:1],1,{16}7,8,6,8,{8}7,{16}2,1,
{8}3q8[8:1],5,{4}3/6,2/1-5[8:1],{8}1,4,
{32}E4,B3,{8},{32}E2,B1,{8},{32}E8,B7,{8},{32}E6,B5,{16},3,2,1,8,7,
{8}5q1[8:1],4,{4}5/3,2>5[8:1],{8}2,6,
{4}6v1[8:1],6,{16}2,4,3,5,{8}4,{16}6,5,
{8}7,8,1/2,3,4/6,5h[8:1]/3h[8:1],,4/6,
3b/5b,4b/6b,2b/4b,5b/7b,{2}8b-6qq5[4:13]/2b-7[16:17],
