&title=Bullet Waiting for Me (James Landino Remix)
&artist=Nikki Simmons / James Landino
&first=-2.27
&des=
&des_5=Cactus
&lv_5=13
&inote_5=(107){4},,,,{16}5h[8:1]
,
{8},{16}5,{8}2,3/5h[4:1],3,{16}2,3,,5/4,,4h[16:5],
5h[8:1],{8},{16}5,{8},{16}4/5h[4:1],3,{8}2,{16}1,2,5h[16:1],3,5,4/6h[16:5],
{8}4xh[16:3],{4},{16}6/4h[4:1],6,6,5,,5,4h[16:1],6,4,7h[8:3],
4h[8:1],{8},{16}4,{8},{16}4h[4:1],6h[16:7],{2},{4}1b,
{8}C,{16}5,4,3/6h[16:1],{8},{16}3h[8:1],C,{8},{16}6h[16:3],
,4h[16:3],{8},C,{16}7,6,4/5h[8:1],{8},{16}2,C,4,,5h[4:1],
{4},{8}C,{16}1,1,1/7h[8:1],{8},{16}2h[8:1],C,{8},{16}5h[4:1],
{4},C,{8}3/6h[4:1],{24}E4,B3,B2,{8}B1,{16}8,8,
{8}2b/8h[4:3],{16}3,3,{8},{16}4,4,,2,,3,,4,,3h[16:5],
{8}7h[4:3],{4},{8}1,1,8,2,{16}1,1h[16:1],
6h[4:3],3h[16:3],{4},{16}1,1,{8}1,{16}2,3,,1,,4h[16:5],
{8}5h[2:1],{4},{16}7,7,,8,{8},{4}3h[8:1]/6h[8:1],
2xh[4:1]/7xh[8:1],{12}C,1,8,{8}2b,{16}2,4,C,4,,5,
,4,{8}6,{4}C,{8},4,3/C,2,
{4}6/4h[4:1],C,{8},4,3/C,2,
{4}6/4h[4:1],{8}C,{16}3,3,{32}6,{16},{32}4,{16},5,{8}1b/C,2,
2/7,6,6/4,{16}5,3,,8/1,,6/5,,2/4,,8h[4:1]/7h[4:1],
,,,,,6,6,6,{8}6/3,7/2,5/C,{16}3,6,
,4h[16:3]/5h[16:3],{4},{8}1,1,8,2,{16}1,3,
,3h[16:3],,,,,,8,8-4[8:1],1,{8},8bx/C,2,
2/6,4,7/3,{16}5,4,,1/2,,3h[16:1]/5h[16:1],{8},{16}2/7,1h[16:5]/8h[16:5],
{8},,,{16}2,2,{8}2/5,8/7,2/C,{16}3/6,3/6,
,5h[16:3]/4h[16:3],{4},{8}5/4,8bx/1x,1bx/8x,8bx/1bx,{16}8/1,8/1,
7/2,6/3,{8}5h[8:1]/4h[8:1],{16},,,4,3,2h[16:1],,2h[16:1],{8}C,3,
{16}4/E6/B5,{8},{16}3,{8}E8/B8,4,{16}E6/B5,3,{8},4/E8/B8,4,
{16}5/B4/E4,{8},{16}6,{8}B1/E2,5,{16}B4/E4,6,{8},B1/E2/5pp8<5[1:1],5,
{16}3x,{8},{16}2,{8},3,{16},2,{8},3,2,
{16}1,{8},{16}2,{8},{16}1,1,7,2,,8,1s5[2:1]*s5[2:1],5,1,5,
,6h[16:7],{8},,,,,{16}8z4[2:1]*z4[2:1],8,{8},{16}3h[2:1],
{8},,,,,{16}2,{8},1,
{16}8/B3/E4/B4,{8},{16}7,{8},6,{16}4/B7/E8/B8,{8},{16}3,{8},2,
{4}C/8x-5[8:1],2/8x-3[8:1],{16}C/8x<5[8:1],{8},{16}1,{8}8x-3<4v1>2-5[16:5],8x,
7b,6-1<6-8-4[16:5],5,4x,3,2,{16}1x-6>5v8<7-4[16:5],8,1x,8,
{8}2x,3-8>3-1-5[16:5],4,5x,6,7,{16}8x-3-1-4-2[16:5],1,8x,1,
{8}7x,6>4v7-1<6[16:5],5,4x,3,2,{16}1x-6-8-5-7[16:5],8,1x,8,
{8}2x,3<5v2-8>3[16:5],4,5x,6,7,{4}8b,
{16}2,8,1,7,2-4[16:1],8-6[16:1],1x-5[16:1],7x,2x,8x,{8}1x,{4}7b/2b,
{16}7,1,8,2,7-5[16:1],1-3[16:1],8x-4[16:1],2x,7x,1x,{8}8x,{4}2b/7b,
{16}3,1,2,8,3-5[16:1],1-7[16:1],2x-6[16:1],8x,3x,1x,{8}2x,{4}8b/3b,
{16}6,8,7<4[32:1],1,6,8>3[32:1],{8}7x,{16}8x-5[32:1],{8},{16}8x-3[32:1],{8},8x,
{64}5bx/4bx,E5,B5/B4/E6/E4,B6/B3,E7/E3/C,B7/B2,E8/E2/B8/B1,E1,{8}D1,6b/3b,{16}1-5[8:1],8,1x,8,{8}1,{16}7,2,7,2,
8x-4[8:1],1,8,1,{8}8,{16}2-5[8:1],7,2x,7,{8}2,{16}8,1,8,1,
7x-4[8:1],2,7,2,{8}7,{16}1-5[8:1],8,1x,8,{8}1,{16}6,3,6,3,
5x-1[8:1],4,5,4,{8}5p4[4:1],{16}4,6,{4}5x,{8}8b-5[8:1],8-3[8:1],
8x-4[8:1],8,8,{16}3,5,2x,6,{8}1,1b-4[8:1],1-6[8:1],
1x-5[8:1],1,1,{16}6,4,7x,3,{8}8,{16}1b-4[8:1],1,1-6[8:1],1,
{8}1x-5[8:1],1,1b,{16}7,1,6x,2,{8}5,{16}8b-5[8:1],8,8-3[8:1],8,
{8}8x-4[8:1],8,8b,{16}2,8,3x,7,{8}4,{16}6b,2,4,8,
5bx/E2/B2,{8},{16}4,{8}E8/B7,5,{16}E2/B2,4,{8},5/E8/B7,5,
{16}4bx/E8/B7,{8},{16}5,{8}E2/B2,4,{16}E8/B7,5,{8},E2/B2/4qq1>4[1:1],4,
{16}6x,{8},{16}7,{8},6,{16},7,{8},6,7,
{16}8,{8},{16}7,{8},{16}8,8,2,7,,4/3,,4/7-3[16:1],,6,
8-4[16:1],7,,1-5[16:1],{8}8,{16}2-6[16:1],1,,3,{8}2,{16}5xh[32:1]/4xh[32:1],6x/3x-7[16:1],6xh[32:1]/3xh[32:1],5x/4x,
4x-8[16:1],3x,,5-1[16:1],{8}4,{16}6-2[16:1],5,,7,{8}6,{16}5,4,8,1,
7,6,6,5,5,4,4,3,1,2,6,5,7,8,4,3,
{4}5-7[8:1]*-8[8:1],5-3[8:1]*-2[8:1],5-1b[8:1],Cf,
{16}2bx,4,3,5,3,5,4,6,4,6,5,7,4,6,3,5,
1b,4,3,4,2,5,4,5,3,6,5,6,4,7,6,7,
8b,3,2,4,8,4,3,5,1,5,4,6,1,6,5,7,
2b,3,2,4,3,4,3,5,4,5,4,6,1b,6,2,2,
7bx,5,6,4,6,4,5,3,5,3,4,2,5,3,6,4,
8b,5,6,5,7,4,5,4,6,3,4,3,5,2,3,2,
1b,6,7,5,1,5,6,4,8,4,5,3,8,3,4,2,
7b,6,7,5,6,5,6,4,5,4,5,3,8b-4[8:1],3,6,1,
{1}C,
E
