&title=メイガスナイト
&artist=上海アリス幻樂団
&first=0
&des=楽勝、常勝、秦河勝! #clock_count=4
&lv_5=14
&inote_5=(167){1},
{1},
{8}1h[4:1]/5-8[8:1],,,,3h[4:1],,,,
{8}5h[4:1],,,,7h[4:1],,,,
{8}8-4[8:1],1h[4:1],,,3h[4:1],,,,
{16}5h[16:3],,,6h[16:3],,,7<4[8:1],,8h[4:1],,,,,,,,
{8}1-4[8:1]/5h[8:1],,5h[8:1],,6h[8:1]/3-8[8:1],,6h[8:1]
,,
{8}7-4[8:1]/1h[8:1],,1h[8:1],,2h[8:1]/5-8[8:1],,2h[8:1],,
{8}7<4[8:1],3h[8:1],7,2,1h[4:1],,3,,
{16}1h[16:3],,,2h[16:3],,,3,4,5-1[8:1]/8h[4:1],,,,,,,,
{16}7h[16:3],,,6h[16:3],,,5h[8:1],,3h[16:3],,,2h[16:3],,,1h[8:1],,
{16}8h[16:3],,,2h[16:3],,,8,1,8-4[8:1],,7,,6,,,,
{16}6h[16:3],,,3h[16:3],,,5,4,5h[8:1],,6h[8:1],,7h[8:1],,8<5[4:1],,
{16}1h[2:1],,,,,,,,4h[8:3],,,,,,,,
{16}3h[16:3],,,5h[16:3],,,4h[8:1],,7h[16:3],,,5h[16:3],,,6h[8:1],,
{16}3h[8:1],,5,,6h[8:1],,2,,7<4[4:1],,8,,1,,2,,
{16}3h[16:3],,,2h[16:3],,,1,,7h[16:3],,,6h[16:3],,,5,,
{16}4,5,4,5,4,5,{24}4,3,2,8h[4:1]/1-5[8:1],,,,,,,,,,,,
{16}2-5[8:1],,,6,,,7h[8:1],,3-8[8:1],,,6,,,5h[8:1],,
{16}1h[16:3],,,4h[16:3],,,2,3,2-6[8:1],,1,,8,,,,
{16}8-5[8:1],,,1,,,2,3,4h[8:1],,5h[8:1],,6h[8:1],,7h[8:1],,
{16}8h[8:3],,,7<4[8:1],,,{24},1,2,3h[8:3],,,,,,{16},,6,,
{16}4-1[8:1],,,5,,,6h[8:1],,2-7[8:1],,,6,,,5h[16:2],,
{16}8-3[8:1],,1,,5-2[8:1],,6,,7<4[8:1],,8,,1,,2,,
{16}3-8[8:1],,,7,,,6,,5-8[8:1],,,2,,,3,,
{16}4h[8:3],,,,,,{24}8>3[6:1],7,6,5h[4:1],,,,,,,,,,,,
{8}7-2[8:1]/3-6[8:1],,,,1-6[8:1]/5-2[8:1],,,,
{16}1h[8:3]/5<8[8:1],,,,,,,,2-6[8:1]/7-3[8:1],,,,,,,,
{8}1>4[8:1],8h[4:1],,,6h[8:2]/5>2[8:1],,,,
{16}1/5,,,2/6,{8},3/7,4h[4:1]/8h[4:1],,,3-8[8:1]/7,
{8},6h[4:1],,,5-8[8:1],1h[4:1],,,
{16}3h[8:3]/7-2[8:1],,,,,,,,5>2[8:1]/1,,,,,,1>4[8:1],,
{8},8h[4:1],,,6-2[8:1],4h[8:3],,,
{16}1b,,,8b/3,{8},7b/2,6b/1>4[8:1],,,,
{8}6h[4:1],2h[4:1],,,6h[4:1],3h[4:1],,,
{8}5h[4:1],3h[4:1],,,4,3,4,3,
{8}5h[4:1],2h[4:1],,,6h[4:1],2h[4:1],,,
{8}6h[4:1],1h[4:1],,,7,8,7,8,
{8}6-1[8:1],5,4,3,6-2[8:1],5,4,3,
{8}6<1[8:1],5,4,3,3h[8:1],2h[8:1],3h[8:1],2h[8:1],
{8}3-8[8:1],4,5,6,3-7[8:1],4,5,6,
{8}3>8[8:1],4,5,6,{16}6h[8:1],,7h[8:1],,6,7,6,7,
{16}6h[8:1],,5>2[8:1],6h[16:3],,,5,,7h[8:1],,1>4[8:1],7h[16:3],,,1,,
{16}6h[8:1],,5,6h[16:3],,,5,4,3-7[8:1],,7,,3,,,,
{16}1h[8:1],,8,1h[16:3],,,8,7,6-2[8:1],,2-6[8:1],,3,,4,,
{16}5h[16:3],,,6<1[8:1],,,{24}6/5,4,3,2h[8:3],,,{16},,,,6b,,
{16}3h[8:1],,4-8[8:1],5h[16:3],,,4,,6h[8:1],,7-3[8:1],8h[16:3],,,7,,
{16}1-5[8:1],,2,,5-2[8:1],,6,,7<4[8:1],,8,,1,,2,,
{16}3-8[8:1],,4,3,,,5h[8:1],,2-5[8:1],,6,2,,,7h[8:1],,
{16}4,8,4,8,4,8,{24}4,3/7,2/6,1-5[8:1]/5h[4:1],,,,,,,,,,,,
{8}2h[4:1]/6h[4:1],,,,3h[4:1],,,,
{8}4h[4:1],,,,5h[4:1],4,4,,
{8}7h[4:1]/3h[4:1],,,,8h[4:1],,,,
{8}1h[4:1],,,,2h[4:1]/6-1[8:1],,,,
{8}2-5[8:1],1,8,,7-4[8:1],8,1,,
{8}3>8[6:1],4,5,6,7<4[6:1],8,1,2,
{16}3b,,,2b/5h[16:3],,,1b,,8b,,,7b/2h[16:3],,,6b,,
{16}4h[16:5]/5h[16:5],,,,,,3/6,2/7,1,8,1,8,1,8,1,8,
{16}1-4[8:1],,1,,8,,7,,2-5[8:1],,2,,1,,8,,
{16}3-6[8:1],,3,,2,,1<6[6:1],,,,5,,4,,3,,
{16}2h[8:1]/4,,3,,7h[8:1]/5,,6,,4h[8:1]/2,,3,,5h[8:1]/7,,6,,
{16}4b/7h[8:1],,,3b/6h[8:1],,,2b/5h[4:1],,,,,,1h[8:1],,5h[8:1],,
{16}2,6,3,7,4,8,5,1h[16:3],,,4h[8:1],,3h[8:1],,2h[8:1],,
{16}1-5[4:1],,,2,,,2h[4:1],,,,,,2,,5,,
{16}2/4h[8:1],1,8h[8:1],,5h[8:1],1,2,,6/3h[8:1],7,8h[8:1],,4h[8:1],7,6,,
{16}2/5,,,4/7,,,1/8,,1,8,2,7,1,8,3,6,
{16}1<6[8:1],,1,,2,,3,,4>1[8:1],,4,,5,,6,,
{16}7<4[8:1],,7,,8,,1-4[8:1],,,,5,,6,,7,,
{16}4/8h[16:3],3,2,1,8h[16:3],7,6,5,4h[16:3],1,2,3,4h[16:3],5,6,7,
{16}8b,,,2b,,,3b/7h[8:3],,,,,,3h[8:1],,6h[8:1],,
{16}4,5,3,6,4,5,2,7h[16:3],,,8<5[8:1],,1,,2,,
{16}3-6[8:1],,,3>8[4:1],,,3h[4:1],,,,,,3,,2,,
{16}1,2,3h[8:1],,8,1,2h[8:1],,7,8,1h[8:1],,6,7,8h[8:1],,
{16}4,,,5<8[8:1],,,{24}4/5,3,2,1h[4:1],,,,,,{16}8,7,6,5,
{16}4h[8:1],,1-6[8:1],,3h[8:1],,1,,2h[8:1],,5-2[8:1],,7h[8:1],,5,,
{16}6h[8:1],,3-7[8:1],,2h[8:3],,3,,,,6,,1,,7,,
{16}2<7[8:1]/6h[8:1],3,4,,2/5h[8:1],,,,2-7[8:1]/6h[8:1],3,4,,2/5h[8:1],,,,
{16}6b/8-4[16:1],,,2-6[16:1]/8b,,,5h[8:3]/2b,,,,,,7,,8,,
{16}1/5,2/6,3/7,4/8-4[8:1],1h[8:3]/5,6,7,8,,,3,,4,,5,,
{16}6b/4-8[16:1],,,2-6[16:1]/4b,,,7h[8:3]/2b,,,,,,4,,7,,
{16}2<7[8:1]/6,3,4,,6<1[8:1]/2,5,4,,2<7[8:1]/6,3,4,,6<1[8:1]/2,5,4,,
{16}2/6,,2,,2,,2,,{32}2,3,4,5,6,7,8,1,2,3,4,5,6,7,8,1,
{16}2h[8:1],,8-3[8:1],,7h[8:1],,8,,6h[8:1],,4-7[8:1],,3h[8:1],,4,,
{16}2h[8:1],,1-5[8:1],,8h[8:3],,1,,,,3,,6h[4:1],,5,,
{16}4b,3,2,1,8-5[8:1]/4b,3,2,1,8/4b,3,2,1,8-4[8:1]/4b,3,2,1,
{16}8b/4<7[4:1],,,8-3[16:1],,,8b,,,,,,2,,6h[8:1],,
{16}1,5,2-7[8:1],6,1,5,2,6h[16:3],,,8h[8:1],,7h[8:1],,6h[8:1],,
{16}5-1[4:1],,,4,,,4h[4:1],,,,,,8,,2,,
{16}1-5[8:1]/7h[8:1],,,,8h[8:1],,,,1-5[8:1]/4h[8:1],,,,3h[8:1],,,,
{16}2/6,,,3/7,,,4/8,3/7,2h[4:1]/6h[4:1],,,,,,,,
{1}1h[4:1]/5-8[8:1],
E
