&title=恋のメガネ
&artist=善沙闇子「俺、ツインテールになります。」
&first=0.02
&des=Tail_Red
&lv_5=13+
&inote_1=
&inote_5=(174)
{1},
{4}4,4,4,Cf,
{4}2-4[8:1],1,8-6[8:1],1,
{4}2-5[8:1],1,8-5[8:1],1,
{4}2/4,4/5,7/5,1/8,
{4}2-5[8:1]/4-8[8:1],,6,6,
{4}7-5[8:1],8,1-3[8:1],8,
{4}7-4[8:1],8,1-4[8:1],8,
{4}E5/B5,E3/B3,E7/B7,E1/B1,
{4}1b-5[8:1]/8b-4[8:1],1b-3[8:1]/8b-6[8:1],1b/8b,Cf,
{8}3-1[8:1],4,3,5,3-1[8:1],4,3,5,
{8}3-1[8:1],4,3,5,3-1[8:1],4,3,5,
{8}3-1[8:1],4,3,5,3-1[8:1],4,3,5,
{8}3-1[8:1],4,3,5,3b-1[8:1]/4b-8[8:1],,3/4,,
{8}6-8[8:1],5,6,4,6-8[8:1],5,6,4,
{8}6-8[8:1],5,6,4,6-8[8:1],5,6,4,
{8}6b/5b,,1b/8b,,4b/3b,,2b/6b,2/6,
{8},7b/3b,3/7,,1b-5[8:1]/8b-4[8:1],,E1f,,
{4}3qq4[2:1],5,5,5h[4:1],
{8}2,3,4,5h[4:1],6,7,8h[4:1],,
{4}2-5-1[2:1],6,6,6,
{8}8,7,6,5h[4:1],4,3,2h[4:1],,
{4}6qq3[2:1],2,2,2,
{4}1pp5[2:1],6,6,6,
{4}3h[8:1]/5h[8:1],3h[8:1]/5h[8:1],4h[8:1]/6h[8:1],4h[8:1]/6h[8:1],
{8}2/8,3,4,5,6/8,5,4x/3x,,
{4}2x-6[8:1],7,7/4x-1[8:1],7,
{4}7^4[8:1]/8p4[8:1],,7^4[8:1]/8p4[8:1],,
{8}5-1[8:1],,3,3,8^5[8:1],4,4,4,
{8}4/6,3/7,2-6[8:1]/8-4[8:1],,2b/8b,,3x/7x,,
{4}4-2[8:1]/6,6,5-1[8:1]/6,6,
{4}7/1-3[8:1],7,8-4[8:1]/7,7,
{4}5-2[8:1]/6-1[8:1],,3-8[8:1]/8-4[8:1],,
{8}1x/5x,2,3x/7x,6,4x/5xw1[8:1],,,,
{8}3qq4[8:3],,,5,5-1[8:1]*-8[8:1],,5,,
{8}3qq4[8:3],,,5,5-1[8:1]*-8[8:1],,5,,
{8}2h[4:1],,7,6,5-2[8:1]*-8[8:1],,5,,
{8}7h[4:1],,2,3,4w8[8:1],,,,
{8}6pp5[8:3],,,4,4-8[8:1]*-1[8:1],,4,,
{8}6pp5[8:3],,,4,4-8[8:1]*-1[8:1],,4,,
{16}2/7,,3,4,3,,4,5,3,,3,4,3h[4:1],,5,,
{8}7-4[8:1],,2,2,1-5[8:1],,1,
{8}7hb[4:1],,4V28[4:1],4,,5,5h[4:1],,
{8}1h[4:1],,6V84[4:1],6,,2,2h[4:1],,
{8}5h[4:1],,4V26[4:1],4,,7,7h[4:1],,
{8}5^2[8:1],,6,7,8,1-6[8:1],2,3,4,
{8}5h[4:1]/4,,3^6[8:1],7,3,,8,1/7h[4:1],
{8},2q6[8:1],6,,7-4[8:1],,4/7,3h[4:1],
{8},5,3/5,4/6,5/7,2/4,3/5,4/6,
{8}5w1[8:1]/7,,Cf,,{16}3x,7x,3x,7x,2x,8x,2x,8x,
{4}1b-5[8:1],1/7,8-4[8:1]/2-4[8:1],8/2,
{8}3-8[8:1],4,7-4[8:1]/3,6,1-5[8:1]/7,2,8^5[8:1]/1,,
{8}8/3,2-6[8:1],6,2,7-3[8:1],5,7,4-8[8:1],
{8},4/5,6,7,{32}E3,B3,B4,E5,,,,,E1,B8,B7,E7,,,,,
{4}8bx-4[8:1]/2x,8/2,1-5[8:1]/7-5[8:1],1/7,
{8}4,4b-2[8:1],,8b-4[8:1]/4,,6b-8[8:1]/8,,5b-1[8:1]/6,
{8},7,7h[4:1],,2-5[8:1],8-4[8:1],2,8,
{8},3,2b/5b,1b/8b,5bq1[8:1]/6b^8[8:1],,5/6,,
{1}2qq5[2:3],
{2}5,6,
{1}7qq4[2:3],
{2}4,3,
{1}2pp6[2:3],
{2}6,7,
{4}8V64[2:1],,,3,
{4}2h[4:1],3h[4:1],4h[4:1],5h[4:1],
{4}6-4[8:1],3,7-3[8:1],2,
{4}6-4[8:1],3,7-3[8:1],2,
{8}8^5[8:1],,3,2,1^4[8:1],,6,7,
{8}8^3[8:1],,8/7,,5^8[8:1]*^2[8:1],,,,
{4}3-5[8:1],6,2-6[8:1],7,
{4}3-5[8:1],6,2-6[8:1],7,
{4}3-5[8:1],6-2[8:1],4-7[8:1]*-1[8:1],4,
{8}2x/8x,3/4,4/5,5/6,1x/2x,3/5,4/6,5/7,
{8}8p4[8:1]/1,1,8,2^5[8:1],,2,8,7qq5[32:5],
{8},5,4,3,2h[4:1],6,6^1[8:1],,
{8}6,5,4h[4:1],8,8-4[8:1],3,2,1^6[8:1],
{8},2/1,3,4,5^8[8:1],4,5,3h[4:1],
{8},1-6[8:1],2,1,3^8[8:1],4,5,6h[4:1],
{8},8-4[8:1],5,8,6^1[8:1],5,4,3h[4:1],
{8},7-4[8:1],,3^8[8:1],,7-4[8:1],,3V15[4:1],
{8},6h[4:1],,,4w8[8:1],,4,,
{4}3qq4[4:1],3/5,7qq8[4:1],7/1,
{4}3qq4[4:1],3/5,7h[8:1],4h[8:1]/6h[8:1],
{4}8V62[4:1],8/2,{8}1V37[4:1],,1/7,6,
{8}5-1[8:1],,7/5,6,5-1[8:1],2-5[8:1],5,2,
{8}6pp5[4:1],,6/4,3,2pp1[4:1],,2/8,7,
{8}6pp5[4:1],,6/4,3,2,2,3/5,4/6,
{8}7,8b^5[8:1],5,8,4,3b-7[8:1],5,3,
{8}6,5b-1[8:1],1,5,2bq6[8:1],8bV64[8:1],2b,8b,
{1}Cf,
{1},
{1},
{1},
{24}E3,B3,B4,{16},,,,,,,,,,,,,,
{1}7^6v3^2[4:3],
{1}4x>5[2:3],
{1},
{16}3/4,,,,3/4,,,,2h[4:1],,,,8,,8h[4:1],,
{8},4,4-8[4:1],,E6,,,,
{8}1/7,,1/7,,6h[4:1],,4,4h[4:1],
{8},7,7p3[4:1],,E2,,,,
{16}2/4,,,,2/4,,,,1h[4:1],,,,6,,6h[4:1],,
{8},4,4v1[4:1],,E7,,,,
{8}8h[4:1]/2-5[8:1],,,,6^1[8:1]/4h[4:1],,,,
{8}2/4,2,3/5,3,{16}2,3,4,5,8,7,6,5,
{8}1^4[8:1],,7,7-3[8:1],,7/1-5[8:1],,4-8[8:1]/1,
{8},4,3,2h[4:1],{16}8,7,6,5,1,2,3,4,
{8}6^1[8:1],,2,2-5[8:1],,8-4[8:1]/2,,3-8[8:1]/8,
{8},3,4,5h[4:1],{16}8,1,2,3,5,6,7,8,
{8}4^1[8:1],,6,6-2[8:1],,6/4-8[8:1],,1-5[8:1]/4,
{8},1,2,3h[4:1],{16}5,6,7,8,4,3,2,1,
{8}5<2[2:1],,4,,4,,3,3,
{8}2q5[8:3],,5,,6xh[8:1],,3hx[8:1]/5hx[8:1],,
{8}4>7[2:1],,5,,5,,6,6,
{8}7p4[8:3],,4,3,3xh[8:1],,6x/4x,5b^8[8:1],
{8},5,4,3,2-5[8:1],1-6[8:1],2,1^4[8:1],
{8},1,8,7,6v1[8:1],5^2[8:1],6,5V71[32:5],
{8},5,4,3,2-5[8:1],5-1[8:1],2,6hb[8:5],
{4},,E5,E7/E3,
{16}E8/E1/E2,,,,{32}E4/E6f,B6/B3,B7/B2,E8/E2,,,,,{16}3x,5x,2x,6x,1x,7x,1x,7x,
{4}8bq5[32:5],8/2,1>5b[32:5]/7qq5b[32:5],1/7,
{8}6^1[8:1],5,2v5b[8:1]/6,3,8p4[8:1]/2,7,1-5b[8:1]/8,,
{8}1/6,7-3[8:1],4,7,2^7[8:1],4,2,5V71[32:5],
{8},5/4,3,2,{32}E7,B6,B5,E5,,,,,E1,B1,B2,E3,,,,,
{4}1bp4[32:5],1/7,8<4b[32:5]/2pp4b[32:5],8/2,
{8}6x,6bx^1[8:1],,1b-5[8:1]/6,,5b^2[8:1]/1,,6bv1[8:1]/5,
{8},3,3h[4:1],,8p4[8:1],2V46[32:5],8,2,
{8},7,2b/5b,1b/8b,4b-1b[8:1]/5b-8b[8:1],,{32}E5,Cf,E1,,,,,,
{8}3-8[8:1],4,3,5,3-8[8:1],4,3,5,
{8}3-8[8:1],4,3,5,3-8[8:1],4,3,5,
{8}3-8[8:1],4,3,5,3-8[8:1],4,3,5,
{8}3-8[8:1],4,3,5,3b-8[8:1]/4b-8[8:1],,3/4,,
{8}6-1[8:1],5,6,4,6-1[8:1],5,6,4,
{8}6-1[8:1],5,6,4,6-1[8:1],5,6,4,
{8}6b/5b,,1b/8b,,4b/3b,,2b/6b,2/6,
{8},7b/3b,3/7,,1b-5b[8:1]/8b-4b[8:1],,{32}E1,Cf,E5,,,,,,
E
