&title=私は、わたしの事が好き。
&artist=曲: HoneyWorks 歌: かぐや(cv.夏吉ゆうこ)
&first=0.63
&des=合作だよ"I kinda love myself(´,,•ω•,,)♡"
&lv_5=13
&inote_5=(96),{8}8,8,{32}8,1,8,1-5[0.15##0.15],,,,6,,6,,2,,2-7[0.15##0.15],,6,,6,,4,,4-1[0.15##0.15],,8,
,8,,5,,5,,6/5,,5/4,,4b/3b,,7bx,,7bx,,3,,3-7[0.15##0.15],,6,,6,,1,,1,,6,,6,
,6,,6,,6/4,,6v1[0.15##0.15]/4-8[0.15##0.15],,,,,,,,7,,7-2[0.15##0.15],,4,,4-1[0.15##0.15],,4,,7,{96},,{48}7-4[0.15##0.15],,,2,,,{24}2,
{48},7,,,7,,,4,,,{24}4,{48},1/2,,,8/7,,,5/6,,,{24}2-5[0.15##0.15],{48},8,,,7,,,6x,,,{24}8,{48},1,,,8x,,,8`2x,{96},,,,8,,,1,
,,{48}8v5[0.15##0.15],{96},,,,,,,,,,,,,,,,,,,8-5[0.2312##0.15]/4-1[0.2312##0.15],,,,,,,,,,,,,,,,,,Cf,,,,,{48}8,7,6,{24}5-2[0.1##0.1],{48},,,,,,,,,,,,6,,,5,,,{24}7,
{48},1/2,,,1/2,,,1,2,3,{24}4-7[0.1##0.1],{96},,,,,,,,,,,,,,,,,,,8/1,,7/2,,6/3,,5/4,,,,,,,,,,,,,,,,,,,{24}7,{48},6,,,2,,,2-7[0.15##0.15],,,,,,6/A7,
,,{12}5,{24},Cf,{16},,,{64},{192},{96}8,,,E1f,,,{48}B1f,{96},B2f,,,{12}E3f,{48},,,,,,,,6,,,6,,,{24}6V42[0.15##0.15],
{48},2V86[0.15##0.15],{96},,,,,,,,,,,,,,,,,,,Cfh[32:1],{16},,,{64},{192},{24}7V13[0.15##0.15],,,{12}4V68[0.15##0.15],{48},,,,,,,,6/7,,,5/4,,,{24}2/3,
{48},8-5[0.3125##0.15]/1-4[0.3125##0.15],,,,,,8/1,{96},,,,,,,,,,,,,E7/E3,,B7/B3,,E8/E4,,B8/B4,{24}B5`B1,,6h[32:1],{96},,,,,6h[32:1],,,,,,,,,,,,6,,,,,,,,,,,,6,,,,,,,,,,,,6/4,,,,,,6/4,
,,,,,4/6-2[0.2313##0.15],,,,,,,,,,,,,,,,,,,B6h[32:0],,,,,,,,,,,,,,,,,2,,,,,,,,,,{32}2,,,,2,,,,2,,,,2/7,,2/6,
,2/5,,4-7[0.2312##0.15]/3v8[0.2312##0.15],{4},{64},,{96},{48}8,7,6,5,,,,,,,,,3/2,,,2/3-7[0.15##0.15],,,,,,,,,,,,,,,,,,,,1,
2,3,{24}4z8[0.15##0.15],{48},,,,,,,,,,,,,,,,3/7h[16:1],,,2,,,{24}8xs4[0.2063##0.1],{4}4xs8[0.2063##0.15],
{48},B8,B1,B2,B3,B4h[48:1],,,,,,,,,,,,,,7-3[0.3125##0.2063],,,,,,7,,,,,,,Cf,,,,,7q3[0.3125##0.2063]/6p2[0.3125##0.2063],,,,,,7/6,,,,,,,,,8,
7,6,E6,E5,E4,,,,,,,,,,8/5,,,{24}8/5,{48},8p4[0.3125##0.2063]/5p1[0.3125##0.2063],,,,,,,,,,,,,,,,,{8}1-6[0.3125##0.15]*-4[0.3125##0.15],
{48},1-5[0.3125##0.15],,,,,,,,,,,,,,,,,{16}7xq3[0.15##0.15],3xq7[0.15##0.15],7xq4[0.15##0.15],4xq8[0.15##0.15],{8}8xV26[0.15##0.15],,7h[24:1]/2h[24:1],
7h[24:1]/3h[24:1],1v6[0.3125##0.2063],{48},1-5[0.3125##0.2063]*v3[0.3125##0.2063],,,,,,1,{4},{16},,,{48},{8}Ch[6:1],
,,,7h[24:1]/3h[24:1],6h[24:1]/2h[24:1],1v4[0.3125##0.2063],{48},1-5[0.3125##0.2062]*v6[0.3125##0.2062],,,,,,1,,,,,,,,,,,,,,,,,{8}3h[48:1]/7h[48:1],
6h[48:1]/2h[48:1],{48}8v5[0.3125##0.2063],,,,,,,8-4[0.3125##0.2062]*v3[0.3125##0.2062],,,,,,8,,,,,B8,B4,{4},{16},,,{48},5h[24:1]/3h[24:1],
,,,,7h[24:1]/4h[24:1],,,,,,,{8}6-2[0.3125##0.2063],{48},6<2[0.3125##0.2062]*>2[0.3125##0.2062],,,,,,6,,,,,,,,,,,,,,,,,{16}6/5h,
6/5h,6/4h,6/3h,6/2h,6/1h,6/8h,6b/7bh,{48},,,,,6h[24:1]/5h[24:1],,,,,,6h[24:1]/4h[24:1],
,,,,,6h[24:1]/3h[24:1],,,,,,6-2[0.3125##0.2063]/3-7[0.3125##0.2063],,,,{16}6h[24:1]/3h[24:1],{4},{16},,,{24},{48}8h[24:1]/6h[24:1],,,,,,1h[24:1]/3h[24:1],
,,,,,,,,{6}1bw5b[48:7],{48},,,,,,,,,,,,,,,,,{16}7V14[0.3125##0.2063]/2V85[0.3125##0.2063],,7/2,,,7,
7,2,2-6[0.15##0.15],{24}2,,,,,8h[48:1]/1h[48:1],,,{12}8h[24:1]/6h[24:1],{24},1h[24:1]/3h[24:1],{48},,,,7-3[0.15##0.15],,,7,,,{24}2-6[0.15##0.15],
{48},2,,,8-4[0.15##0.15],,,8,,,{24}3>1[0.15##0.15],{48},3,,,,,,,,,{24}1-6[0.3125##0.2062],{48},,,,,1-5[0.3125##0.2063]*v3[0.3125##0.2063],,,,,,1,,,,,,,{8}7h[48:1]/2h[48:1],
{48},,,,7z3[0.15##0.15],,,7,,,{24}1-5[0.15##0.15],{48},1,,,7-3[0.15##0.15],,,,,,,,,,,,,7-2[0.15##0.15],,,7,,,4-8[0.15##0.15],,,{24}4,{48},,,,,,,,,,,,6-3[0.15##0.15],
,,6,,,,,,1>3[0.3125##0.15]/8<6[0.3125##0.15],,,,,,1-4[0.2062##0.15]/8-5[0.2062##0.15],,,,,,,,,,,,,,{16}7h[48:1]/1h[48:1],{48},,,,7-3[0.15##0.15],,,7,,,{24}2-6[0.15##0.15],
{48},2,,,8-4[0.15##0.15],,,8,,,,,,6x-2[0.3125##0.2062]/2x>6[0.3125##0.2062],,,,,,6x<2b[0.2062##0.15],,,,,,,,,,,,,,,,,,,,{16}7<5[0.15##0.15],7,1v4[0.15##0.15],
1,7-2[0.15##0.15],7,3-6[0.15##0.15],3,,,3x-7[0.3125##0.2063]/7x<3[0.3125##0.2063],,3x>7b[0.2063##0.15],,,,6h[48:1]/4h[48:1],,6h[48:1]/2h[48:1],
{48},,,,7-3[0.15##0.15],,,7,,,{24}2v4[0.15##0.15],{48},2,,,8-5[0.15##0.15],,,8,,,,,,,,{16}7-3[0.3125##0.2063],2v8[0.3125##0.2063],7,{4}2,
{24},7h[48:1]/2h[48:1],,{8}7h[48:1]/3h[48:1],{48},7/2,,,7/3,,,7/4,,,{24}7/5-1[0.3125##0.15]*-2[0.3125##0.15],,,,,,7-5[0.3125##0.15],,,7/1-3[0.3125##0.15],,,1/7-5[0.3125##0.15],
,,{12}7/4-2[0.3125##0.15],{24},4/8-5[0.3125##0.15],,,8/3-7[0.3125##0.15],,,3/4-1[0.3125##0.15],,,{12}4/3,{48},,,,{16}7/1,6,5/3,2,
7/1,7h/2h,7h/3h,3h,6h/4h,7h/4h,{48},,,,,,,,{24}1/8-5[0.3125##0.15],,,8/1v4[0.3125##0.15],,,1/7,{48},,,,7b/2b,,,1b/8b,
,,2b,,,,{16}6,3,6,1/5,2,3/5,6,2/7,3,4/6,7,4/8,3,2/8,
7,3/6,2,1/7,8,1/6,2,3/7,8,1/4,3,2/8,{48}8x,7x,{192}6x,,,5x,,,{96}4x,{192},3x,,,2x,,,1x,,,{96}8x,{192},7x,,,6x,,,5x,,,{96}4x,{192},3x,,,{48}2x,
{192}1x,,,,,2x,,,3x,,,4x,,,{96}5x,{192},6x,,,7x,,,8x,,,,,,7x,,,6x,,,5x,,,{96}4x,{192},3x,,,2x,,,1x,,,{96}8x,{192},7x,,,{24}1,{48},2/8,,,1,,,4/2,,,{24}3,{48},4/2,,,1,,,4/8,,,{24}3/2,{48},5/7,,,1/4,,,8/6,
,,{24}5/2,{48},3/7,,,6/1,,,4/8,,,{24}5/3,,,{12}2/8,{48},,,8/7,,1bx,{96}2x,3x,{192},4x,,,5x,,,6x,,,{96}7x,{192},8x,{576},,,,,,{144}1x,,2x,,3x,,4x,,5x,,6x,,7x,,8,,1,,2,,3,,4,,{48}5bx<4[2:1],{4},,{16},{48},{2}B6fh[48:7],
E
