&title=人マニア
&artist=原口沙輔/重音テト
&first=0
&lv_5=13+?
&des_5=DEREK
&inote_5=
(150){4},,,,{2}C,
Ch[4:1],
{4},C,{48}1b/8b,2x/7x,3x/6x,4x/5x,{6},{4}C,
{16}7x,E8,B8,B1,{32},E1,E2,E3,E4,E5,E6,E7,E8,2bx/Cf,{16},,,{4}7bx/Cf,
4bx/Cf,{8}1bxw5[0.2##0.0667],1bx/Cf/B1/B4/A5/B6/B5/D6/D5,C,{32}4x,5x,6x,7x,{8}8x,1,
1,1,1,1,1/8,1,1/2,1,
1/6,1,1/4,1,{16}1x,1x,{32}2,3,{16}4,{8}5,5,
5,5,5,5,5,5/7,5,5/3,
5bx/4bx,3bx/6bx,{4}2bx/7bx,{8}6/3,{16}2,8,{8}1,8,
8,8,8,8,8/7,8,3/8,8,
8/6,8,8/4,8,8,{16}8,{32}7,6,{8}5,5,
5/4,3/6,3/6,3/6,{24}4,5,4,5,3,6,3,6,2,7,2,7,
{4}1bxw5b[8:1],1bx/8bx/Cf,{2}2bxh[4:7]/2bx>2-4-6-8-2b[2:3],
{1},{2},{4}8bxp6b[0.8##0.4],
8bxq2b[4:1],
{2},Ch[4:1],
{8}8bx-5b[0##0.2],4bx-1b[0##0.2],{4}Cfh[24:1],2bx/Cf,7bx/Cf,
{8}3bh,5bh,{4}5bh[1:1],{8}B8,B2,B6,B4,
B7,B2,{4}E1,{2}8bh[#2.800001]/1bh,
{8}B7,B3,{4}B6,{24}B1,B2,B3,B4,{12},{24}B8,B7,B6,B5,{12},{32}1bx-5[12:1],
{16},{32},{8},{4}1b,{16}6bxh[4:1]/7bx-1[0.2##0.2],{8},{16}B8,{8},B2,
{4}B3,Cf,{16}2bxh[4:1]/3bx-5[0.2##0.2],{8},{16}B4,{8},B6,
{16}B7,{8},{16}7bx-2b[0##0.1],,3bx-6b[0##0.1],{8},{2}B8/B7/B6/B5/B4/B3/B1/B2/C,
E1/E8/E7/E6/E5/E4/E3/E2/Cfh[16:1],{8}1,2,3,4,
{32}5,6,7,8,{8}1b-5b[0.2##0.2],{4}1b,{8}3/4,8,5/6,1,
7-2[0.2##0.2],7,3-6[0.2##0.2],3,{16},5x,6x,5x,6x,5x,4x,5x,
4b,5b,4b,5b,4b,5bw1b[16:7],{1},{8},{4}1b-5b[8:1]/8b-4b[8:1],
1b<5b[8:1]/8b>4b[8:1],
1bs5b[8:1]/8bz4b[8:1],1b/8b,{8}2-4-2[4:1],2,{4}2-7[8:1]*-5[8:1],
,{8}7-5[8:1],7,7-1[8:1],2,7-3b[8:1],4,
{4}7b,{32}1,2,3,4,5,6x,{16}7x,{8}7x/8x,6x,7x/8x-4[8:1],1,
8/7-3[8:1],6x,7-5[8:1],5-7[8:1],{2}7b-3b[8:1],
{32}2bx/5bx<1b[0.8##0.1],3x/6x,4x/7x,5bx/8bx,{8},{32}7bx/4bx,6x/3x,5x/2x,4bx/1bx>5b[0.35##0.1],{4},{8},2-6[0.2##0.2],2,
3-7[0.2##0.2],3,4-8[0.2##0.2],4,5-1[0.2##0.2],5,6bx-2b[0##0.2],7bx-3b[0##0.2],
8bx-4b[0##0.2],1bx-5b[0##0.2],{4}2bx>2b[4:1],,{8},1bx-5b[0.2##0.4],
1bx,{4},{8}5bxpp5qq5b[0.2##0.8],{4},,,4b>1b[8:1]/5b<8b[8:1],
4b/5b,{8}B7,B3,
B6,B2,B1,B5,B8,B4,B7,B3,
{32}B8,B1,B2,B3,B4,B5,B6,B6,{4}7bw3b[8:1],7b,{16}3,5,1,1,
{4}1bw5b[8:1],1b,{32}B5,B4,B3,B2,{8}B1,{32}B5,B6,B7,B8,{8}B1,
{32}1bw5b[8:1],2,3,4,5,6,7,8,{16}1b,Cf/B1/B6/B4/B8/B7/B2/B3/B5,{8},{2}1b>1V73V15V37V51b[2:3],
{1},{2},1b-5pp1b[2:1]*-5qq1b[2:1],
,{8}1b-4b[0##0.2],5b-8b[0##0.2],3b-6b[0##0.2],7b-2b[0##0.2],
{1}1bw5b[4##0.1],
,{2},{4}1b,
1w5[2.4##6.2]/8w4[2.4##6.2],
{1}1bh[4:5]/8bh[4:5],
,,,,{2},{4}1bh,
2bh,
3bh,4bh,5bh,6bh,
{8}7bxh,8bxh,{4}1bxh,{16}2bxh,3x,4x,5x,3bxh,4x,5x,6x,
4bxh,5x,6x,7x,{32}5b/E1,E2,E3,E4,E5,E6,E7,E8,{2}E1/Ch[4:1],
,1bw5b[2:1],
,{8}8b-3b[0##0.2],4b-7b[0##0.2],2b-5b[0##0.2],6b-1b[0##0.2],
2bxw6b[8:1],2bx,{4}2bx,{8}3/4,{16}5x,6x,{8}7x/8x-4[8:1],1,
8/7-3[8:1],6x,7-5[8:1],5-7[8:1],{2}7b-3b[8:1],
{32}2bx/5bxw1b[0.8##0.1],3x/6x,4x/7x,5bx/8bx,{8},{32}7bx/4bx,6x/3x,5x/2x,4bx/1bxw5b[0.35##0.1],{4},{8},2-6[0.2##0.2],2,
3-7[0.2##0.2],3,4-8[0.2##0.2],4,5-1[0.2##0.2],5,6bx-2b[0##0.2],7bx-3b[0##0.2],
8bx-4b[0##0.2],1bx-5b[0##0.2],{4}2bx>2b[4:1],,{8},1bx-5b[0.2##0.4],
1bx,{4},{8}5bxpp5qq5b[0.2##0.8],{4},,,5bw1[8:1],
5b,1,
{32}1x,2x,3x,4x,5x,6x,7x,8x,{4}4x/1bx-6[8:1],{8}1/4-8[8:1],5,4/1-6[8:1],2,
{4}1b/3b-7b[8:1],3b/5b,{8}7/8,{16}1x,2x,{8}3x/4x-8[8:1],5,
4/3-7[8:1],2x,3-1[8:1],1-3[8:1],{2}3b-7b[8:1],
{32}7bx/4bx>8b[0.8##0.1],6x/3x,5x/2x,4bx/1bx,{8},{32}2bx/5bx,3x/6x,4x/7x,5bx/8bx<4b[0.35##0.1],{8},Cf,,2v5[0.2##0.2],2,
1q5[0.2##0.2],1,8p4[0.2##0.2],8,7v4[0.2##0.2],7,8,1,
{16}8-4[16:1],4,6,2,{4}8b,{32}1x,8,7,6,5/1,4/8,3/7,2/6,{8}1/5,8,
{4}8v5[8:1],{8}8/6,7-3[8:1],5,7b-2b[0.6##0.2]*-4b[0.6##0.2],{4}7b,
7b,1bxh[4:1]/5bxh[4:1],{32},E2/E6,E3/E7,E4/E8,{8}E5/E1,{1},{4},,{8},1bxh,
{32}E2,E3,E4,E5,E6,E7,E8,E8,1x,2x,3x,4x,5x,6x,7x,8x,
{4}1bx/Cf,{32}B5,B4,B3,B2,B1,B8,B7,B6,{16}5bxh,7x,4bxh,6x,3bxh,5x,2bxh,4x,
{6}2bxh/Cf,7bxh/Cf,1bxh/Cf/B1/B5,4xh[8:1]/8xh[8:1],{12},{4}E7/E3,
2bx/6bx,{8}1x/5x,5x/1xh[8:3],{16},6x,,3x,{24},2x,3x,4x,5x,6x/2x,
7x/3x,4x/8x,{12}5bx/1bx,,{8}2bxw6[0##0.2],Cf/B2/B6/B1/B3/B7/B5/B8/B4/6bxw2[0##0.2667],{1},,{4},,
