&title=Together, Make The Magic!
&artist=Xyao-Ming/初音ミク
&first=0.137
&des=不会写谱,哭唧唧
&lv_5=14
&inote_5=(125)
{8}E7,E3,B5,B4,E7,E3,{24}E6,B5,B4,E4,,,
{24}2b/8b,,,3,,3h[8:1],,,1qq6[4:1],,,1,
{24}2h[8:1],,,,,,3h[12:1],,,,,2h[6:1],
{24},,8,,,8,1h[8:1],,,7-1p4b[4:1],,7,
{24}2h[8:1],,,,,,B2/B3,,,,,,
{24}5/3,,,6,,6h[8:1],,,4qq1[4:1],,,4,
{24}5h[8:1],,,,,,6h[12:1],,,,,7h[6:1],
{24},,1,,,1,6h[8:1],,,2,,2,
{24}5xhb[24:1],,,4xbh[24:1]/6xbh[24:1],,,3xbh[24:1]/7xbh[24:1],,,1xb/Cf,,,
{24}2b/8b,,,3,,3h[8:1],,,1qq7qq5[4:1],,,1,
{24}2h[8:1],,,,,,3h[12:1],,,,,2h[6:1],
{24},,8,,,8,1h[8:1],,,7<4q8b[4:1],,7,
{24}2h[8:1],,,,,,B2/B3,,,,,,
{24}3h[4:1],,,E6,,,B8,,,E3/5h[4:1],,,
{24}B4,,,E2,,,B7/2h[8:1],,,E6,,,
{24}3-8[8:1]/7-4[8:1],,,,,,3/7,,,,,2qq3b[24:5]/6qq7b[24:5],,,,2x/6x,,,,,,,,,
{8}4xh[8:3],6h[8:1],,6,3xh[8:3]/5,6h[8:1],,6,
{8}2xh[8:3]/5,6h[8:1],,6,1xh[8:3]/5,6h[8:1],,6<8[8:1],
{8}2/5,6-2[8:1]/4,3h[8:1],6<1[8:1],
{8}4h[8:1],6-3[8:1],2h[8:1],6-4-7-1b[4:1],
{24},,,6/2,,,2h[8:1],,,,,2x,4,,3x,5,,4x,6,,5x,7,,,
{8}5xh[8:3]/B4,3h[8:1],,B2,6xh[8:3]/B4,3h[8:1],,B2,
{8}7xh[8:3]/B4,3h[8:1],,B2,8xh[8:3]/B4,3h[8:1],,B2,
{8}4/7>2-4[4:1],E6/B5/B6,7/4<7-1[4:1],,1>4-6[4:1],,6pp5[8:3]*p4[8:3],,
{24},,,,,,,,,,,,3,,3x,2,,2x,1>4[4:1],,1x,8,,,
{8}E8,E7,6x<1[4:1],E6,E5,E4,3x<6[4:1],E3,
{8}E2,E1,8xqq2b[4:1],E8,E7/B6/B7,,5b-7>8[4:1],,
{8}E4,E3,2x-4<5[4:1],E2,E1,E8,7x-1>2[4:1],E7,
{8}E6,E5,4xq1-7b[4:1],E4,E3/B2/B3,,4b-8[8:1],,
{8}4/7-5[8:1],6,4-2[8:1],3,6V85[4:1],7,5-1[8:1],4,
{8}2-4[8:1],3,5-7[8:1],6,3-7-1[4:1],2,4,5,
{24}6,,6,2,,2,1,,1,3,,3,7,,7,8,,8,6-8[8:1],,6,3,,,
{8}3-1[8:1],B3,5-7[8:1],B5,4-2[8:1],B4,6<8-2>4b[8:3],B6,
{8}5h[4:1],,,1xh[2:1],{24}A6,D7,A7,D8,A8,E1,E2,A2,D3,A3,D4,A4,
{24}A5f/E5/E6/2b,,,7/8,,2x,1,,,7/8,,2x,
{24}1h[12:1],,,4/3,,2x,1,,,4<7[8:1]/3,,2x,
{24}1-5-2b[6:1],,,4/3,,,1-7-5-3[24:5],,8x-6-4b[12:1],,,1x,
{24},,,,,,1xh[8:1]/2xh[8:1],,,,,,
{24}1b/2b,,2,3,,3,4,,4,5,,5,6,,6,
{24}7,,7-5[8:1]*-4[8:1],1,,1,,,7x,
{24},,,2x/3x,,,1>3b[8:1]/7q3[8:1],,1/7,,,1xp3b[24:5]/7x<3[24:5],
{24},,,,,1x/7x,,,,,,,
{8}1b/2b,Chf[4:3]/3,4>1-7[4:1],5,4,,,8b,
{24}1/7,,5x,3,,6x<1[8:1],4,,7x,5h[8:1],,,
{24},,,3,,,5/B2/E2,,,4/E8/B7,,,
{24}6b/2b,,6,5,,5,4,,4,3,,3,
{24}1,,1,7,,7V13[24:5]*>3[24:5],5,,5,,,7x,
{24},,,,,,5xpp5qq4b[8:3]/4,6x,7x,8x,,,1,,,1,,,1,,,1w5b[8:1],,,
{24}7x/8x,,,1b,,,,,,2/1,,7x,
{24}8h[12:1],,,5/6,,7x,8,,,5>2[8:1]/6,,7x,
{24}8-4-7b[6:1],,,5/6,,,8-2-4-6[24:5],,1x-3-5b[12:1],,,8x,
{24},,,,,,8xh[8:1]/7xh[8:1],,,,,,
{24}8b/7b,,7,6,,6,5,,5,4,,4,3,,3,
{24}2,,2,8,,8,,,1x/E8f/B8/B7,
{24}2,3,4,5,6,7,8,1,2,3,4,{48}5/A8,D8,
{48}A7,D7,A6,D6,A5,D5,A4,D4,A3,D3,A2,D2,A1,D1,A8,D8,A7,D7,A6,,,,,,
{24}3b/4bx,,4,2,,5,3,,6,4pp2[4:1],,7h[6:1],5,,,,,8h[6:1],,,,,,,
{24}6b/5bx,,5,7,,4,6,,3,5qq7[4:1],,2h[6:1],4,,,,,1h[6:1],,,,,,,
{24}3x,4,3,4,3,4,2x,5,2,5,2,5,1x,6,1,6,1,6,8x,7,8,7,8,7,
{24}1x,2,3,4,5,6,7-3[8:1],8,1,2,3,4,5/7-4[8:1],,,1,,,7/1,,,1-5b[8:1],,,
{8}2x/8x,1b/7b,7h[8:1],E5/B4,5/6h[8:1],E3/B2,4/5h[8:1],E1/B8,
{8}3/4<7[8:1],5/2,4/3,{24},,1/8x,,,4/6,,,4/6,5-1b[8:1],,,4/6,,,
{24}7b/5b,,7x,,,2x,{8}2h[8:1],E5/B5,4/3h[8:1],E7/B7,5/4h[8:1],E1/B1,
{8}6/5>2[8:1],7,5/6,{24},,1x/8x,,,5/3,,,5/3,4-7b[8:1],,,5/3,,,
{8}4b/2b-5[8:1],2,2/8-3[8:1],7,8/6-1[8:1],6,6/4-8[8:1],3,
{24}4/2V46[8:1],,,,,,8w4b[8:1]/2,,,,,8x,
{24},,,,,,3/5pp4[4:1],,,2/6,,,
{24}5/3,,,,,1x,,,1xpp8[6:1],2/8,,,1/7,,,,,5x,,,,5,6x/4x,7x/3x,
{24}8x/2xh[8:1],,,5,,,A3/E3,,,A6/E7,,,E2/B2,,,E8/B7,,,E4,B4,B5,E6,,,
{24}7b/1b,,,6/4,,6/4,,,4,6,,6,
{24}1>4[8:1],,,7/8,,,1,,6h[8:1],,,B4/B5,
{24},,1,7,,7,6,,6,5v2<7b[4:1],,5,
{24}3,,,5/2,,,4qq5b[8:3],,,,,,
{24}4b/6b,,,7,,7,,,6,,,6,
{24}5<8[8:1],,,3/4,,,5,,2h[8:1],,,B8/B1,
{24},,6,4,,4,3,,3,2,,2,
{24}8xhb[24:1],,,1xbh[24:1]/7xbh[24:1],,,2xbh[24:1]/6xbh[24:1],,,4xb/Cf,,,
{24}5b/3b,,,2/4,,2/4,,,2,4,,4,
{24}8-4[8:1],,,1/7,,,8,,3h[8:1],,,B6/E7,
{24},,8,2,,2,3,,3,4>1q5b[4:1],,4,
{24}6v8[8:1],,,,,,,,,,,,
{24}3b/7h[4:1],,,E2,,,B4,,,E7/1h[4:1],,,
{24}B8,,,E6,,,B3/6h[8:1],,,E2,,,
{24}7-4[8:1]/3-8[8:1],,,,,,7/3,,,,,6qq7b[24:5]/2qq3b[24:5],,,,6x/2x,,,,,,,,,
{24},,,4qq5[1:1]/8,3/7,2/6pp5[12:11],1b/5b,,,,,,,,,,,,,,,,,,
E
