&title=ignotus
&artist=ak+q
&first=0
&des=ネギラメン
&lv_5=13
&inote_5=(170)
{1},
{4}
8b,,,,,,,,4h[4:6]/5h[4:4],,,,
{8},,,,,,,,3h[8:1]/7pp2[4:5],,,,,,,,,,,,,,,
7/3,7/3qq8[4:5],,,,,,,,,,,,,,
{16}4,5,4,,7qq4[4:5],,,,,,,,,,,,,,,,,,,,,,,,,,,,,,,,
4/3pp6[8:6],,,,,,,,,,,,,,,,
,,,,5s1[8:3],4,6,,,,,,,,,,4b,,,,3h[16:3]/5,,,4,3,,2/4h[4:1],,,,2,,
1h[4:1]/5h[4:1],,,,,,3h[4:1]/7h[4:1],,,,,,5/7-4[8:1],,,,7/3h[4:1],,,,2-7[10:1],,
,2/3,,,4,,6,,7,,8h[4:1]/5h[4:1],,,,,,6h[4:1]/1h[4:1],,,,,,8<4[4:1]/3,,,,
4v7[8:1],3,2,1q5[16:5],8p4[4:1],,,,,,,,,,,,7h[4:1],,,,,,3h[4:1]/5h[4:1],,,,,,
4<7[8:1]/2,,,,1,2,3h[8:1],,8,7,6h[8:1],,2,3,4h[8:1],,7,6,5,
4,6,5,4,3,5,4,3,2,1-5[8:1],8h[16:3],,,,,,,
7b<5[8:1]/4b,,,,47,,,
3,4,,2h[4:1]/5,,,,3,,
1>4[8:1]/4,,,,15,,7<4[8:1],,,,7/3,,1-4[8:1]*-6[8:1],,,,1,,,,25,,,6,5,,
7h[4:1]/4,,,,6,,8<5[8:1]/5,,,,8/4,,2>5[8:1],,,,2/6V41[4:1],,8-5[8:1],,,,
8,,,,7-4[10:1]/2,,,7/3-8[8:1],,,3,,5,,6,,7<4[8:1],,8,,1,,2<7[8:1],,3,,
4,,5>2[8:1],,,,8,7,6h[8:1],,1,2,3h[8:1],,7,6,5h[8:1],,2,3,4h[8:7],
5,
{16}6,,7,,,8,,1,,2,,,{8}3-8[8:1],,{16}3b/2b,,,,7/3,,6,,3-1[8:1]/5,,4,,3/5,,,,
6/8,,1,,6/2,,3,,6-8[8:1]/4,,5,,4-2[8:1]*-6[8:1]/6,,,,4,,,,
8/7,,6,,8/5,,4,,8/3,,2,,1/8,,2/8,,3/8,,8/4,,4v2[8:1]/8v6[8:1],3/7,
2/6,,,,,,1-6[8:1],,1,,5,,4-8[8:1],,4,,3,,1-6[8:1],,1,,5,,4-8[8:1],,4>1[8:1],,3,,
,,,,6,,7,,8-3[8:1],,8,,4,,5-1[8:1],,5,,6,,8z4[8:3],,8h[8:5],,,,,,,,,,
3,2,18,7,6,5,34,2,1-5[8:1],,,,1b/2h[8:1],,,,3h[8:1]/4,,5,,4-1[8:1]/6,,,,
4/8h[8:1],,,,6h[8:1]/8,,8,,5-8[8:1]/1,,1,,5/2-6[8:1],,,,2/8,,8,,7,,5,,6-2[8:1]/4,,
4,,6/3,,3,,1>4[8:1],,8<5[8:1],,1,,8q3[4:1],,,,,,,,,,
5,4,6,5,7,4,5,2,4-1[8:1]*v7[8:1],3,6,5,,,,,2-5[8:1]/5,,5,,2/6,,6,,7-4[8:1]/4,,4,,3/7,,3,,
1/2,,8/3,,8/7,,1/6,,5/4,,3/6,,8,1,7,2,6>3[6:1],,4>1[6:1],,2<7[6:1],,8<5[6:1],,,,,,
4,3,2,1,8qq6[8:1],,,,8/3,,
1q5[8:1],,,,1/5,,7,,5,6,4/7,,3,,2,,5/1,,6,,7,,8/4,7,6,5,
4v2[8:1],,,,7/4,,5q1[8:1],,,,5/1,,3,,1,2,3/8,,4/7,,5/6,,2,4,,7,5,,1-5[8:1],,2,,
1/4-8[8:1],,,,6/4,,7-3[8:1],,,,7/8,,1,,2,,3/4,,4/5,,6/5,,7,8,6,1,5,3,7,4,6,
2s6[16:17],8z4[1:1],,,,,,,,,,,,,,,,,,,,,,,,
5-1[8:1],,,,,,,,2b/8b,,,,6,5,6,4,5,3,4,3,5h[4:1],,,,3,,2,,1,,8,,7,,6,,5h[4:1],,,,
3,5,3,,6,4,6,,7/3,,6/4,,5h[4:1],,,,4,,3,,2,,8/1,,7,,6,,5h[4:1]/4,,,,
3>8[8:1],,3,,6-4[8:1],,6,,8-2[8:1],,8,,7-3[8:1],,7,,2-6[8:1],,2,,1-7[8:1],,1,,3-5[8:1],,
3,,6,,6,,5V73[4:1],,4,,3V16[16:5],,2,,1h[8:3],,,,,,,,7,8,6h[8:1],,2,1,3h[8:1],,
5,4,6,3,8-4[21.2#64:1],1s5[16:19],8h[8:15],,,,,,,,,,,,,,,,,,,,,,,,,,
,,,,,,,,
{24}
2-6[8:1]/5,6,7,{16}8-5[8:1],,2,,8,,
{24}4,3,2,1,,,4-1[8:1],5,6,7,,,{16}4,,
8<5[8:1],,1,,8/3,,1>4[8:1],,7,,1/5-1[8:1],,,,8b/5b,,,,6/8,,7,5,
6v1[8:1]/4v1[8:1],,7/3,,4/6,,,,{24}2/8,3,4,{16}5h[8:1],,8,,
{24}
8/5,7/4,3/6,{16}5w1[8:1]/2,,,,5,,,,7v5[8:1],,6,,7/3v1[8:1],,2,,
3/8-4[8:1],,7,,8/6-2[8:1],,,,6/3h[4:1],,,,
{24}1-5[8:1],8,7,{16}6,,1,,6,,7/4q8[8:1],,3,,1b/4b,,,,3/1,,2,4,3,5,4,6,5,7,4,8,
2-4[8:1]/1-4[8:1],,,,2-7[8:1]/1-7[8:1],,,,2-6[8:1]/1-5[8:1],,,,2/1,,,,
{24}7-3[8:1]/4,3,2,{16}1-4[8:1],,7,,1,,{24}5,6,7,8,,,5-8[8:1],4,3,2,,,
{16}
5-2[8:1],,3,,51,,8-4[8:1],,7-3[8:1],,8>3[8:1],,7qq4[8:3],,8,,
{16}7b,,,,1,,3,3,5-2[8:1],,6,,5,,7,7,
{24}1,2,3,{16}4h[8:1],,8,,{24}8/4,3/7,2/6,{16}5/1w5[8:1],,,,1,,,,
3v1[8:1]/7,,2,,3/7v5[8:1],,6,,7/4-8[8:1],,3,,4/2-6[8:1],,,,7h[4:1]/2,,,,
{24}5-1[8:1],4,3,{16}2,,5,,2,,
8<4[8:1]/3q1[8:1],,4,,3b/8b,,,,5/2,,6,8,7,1,8,2,1,3,8,4,
{32}7b,8,1,2,3,4,5,6,{16}7<4[8:1]/3>8[8:1],,,,7q4[8:1]/3q8[8:1],,,,,,,,
8h[8:2]/4,,3,,2,,1h[4:1]/7,,6,,5,,4h[4:1]/8,,1,,2,,3h[4:1]/5,,6,,7,,
8h[8:1],,4,,2h[8:1],,6,,7h[8:2]/3,,2,,1,,8h[4:1]/6,,5,,4,,2h[4:1]/3,,4,,5,,
6h[4:1]/4,,3,,2,,1h[8:1],,5,,7h[8:1],,3,,
6,5,6,5,7,,3,4,3,4,2,,6,5,6,5,8,,3,4,3,4,1V35[8:1],,5v3[8:1],,1,,7,,1,,
2,8,2,8,3,,6,1,6,1,5,,3,7,3,7,2b/6b,,,,,,1/5,2-7[16:1]/6-3[16:1],
3-6[16:1]/7-2[16:1],,,,,,,,
{8}8/1-3[8:1],,1,8-4[8:1],7h[8:1],8,7-5[8:1],6h[8:1],7,8,8h[8:1],4,
{6}8/4h[6:1],6h[6:1],2h[6:1],
{8}3V51[32:7],5h[8:1],3,8V26[32:7],6h[8:1],8,7V53[8:1]*V13[8:1],,
7b,,15,,{6}3/7h[6:1],5h[6:1],1h[6:1],
{8}2v5[8:1],5,2,7v4[8:1],4<8[4:1],7,{16}8,1,2,3,
{8}4v1[8:1],1,4,5v8[8:1],8<4[4:1],5,{16}4,3,2,1,
{8}8-4[8:1],7,6,5-1[8:1],4,3,2-6[8:1],1,2/8h[4:1],,
{16}5,7,1,3,8,6,4,2,,73,26,15,
{1}8bpp4[2:3]/4bpp8[2:3],,
{8}3h[8:1],4,5,6,
3h[8:1],4h[8:1],5,6,
3h[8:1],4h[8:1],5h[8:1],6,
3h[8:1],4h[8:1],5h[8:1],6h[8:1],
3h[8:1],4h[8:1],5h[8:1],6,
3h[8:1],4h[8:1],5,6,
3h[8:1],4,5,6,
3h[8:1],4h[8:1],5,6,
3h[8:1],4h[8:1],5h[8:1],6,
3h[8:1],4h[8:1],5h[8:1],
6s2[4:1],,3s7[4:1],
