&title=Escaping a Foul Presence
&artist=Gareth Coker
&first=0.05
&des=该昵
&clock_count=4
&des_1=
&des_2=
&des_3=该昵
&des_4=该昵
&des_5=该昵
&des_6=Ori-DX
&des_7=该昵
&lv_1=1
&lv_2=4
&lv_3=6
&lv_4=9
&lv_5=12
&lv_6=12
&lv_7=64
&inote_1=(125){32},{16},{64},,{1},,{4},,,{64},,
{4},{16},{32},{4},
{1},,{16},,,{64},,,,
{4},{1},
,{2},,
{1},,{64},,
{1},{16},{32},
{8},{4},{1},{16},,{32},,
{64},,{4},,{16},,,{64},,
{1},{4},,{16},{64},,
{2},{32},{16},{32},{16},{32},{1},{4},{64},,,,
{16},,,{4},,{16},,{64},,{4},{16},,,{64},,,,
{4},{32},{4},,,{16},{2},
{64},,{4},,{8},{32},{4},,{32},,
{4},,{32},,{16},{64},,{16},{64},,
{16},,,{64},,{16},,{64},,{16},{64},,,,,,,,{16},,{64},,,,{16},,{64},,,,{4},{16},{64},,,,
{16},,{64},,{16},,,{96},{3},
{16},,,,,{32},,{4},{8},{16},,{32},,{4},{64},,
{4},,{32},{16},{8},{16},
{8},,{16},{64},,{4},{16},{64},,,,{16},,,{32},{4},{16},{32},,
{16},,{32},,{16},,{32},,{16},{32},{16},{32},{16},,
,,,{64},,{96},{48},{16},,{32},,{8},{32},,{8},{16},,{64},,,,{4},{16},
{4},{16},{32},,{16},{64},,,,,,,,{16},,,{32},,
{16},,{32},,{16},,{8},{64},{8},{64},{32},{16},{8},,
{4},{48},,{16},,{64},,{192},{64},{16},,{64},,,,{16},{32},{64},{16},{64},{16},,{32},{64},
{4},,{16},{64},{4},{8},{32},
{16},,{32},,{4},,{32},,{4},,{64},,,,
{4},,{64},,,,{4},,{16},,
{1},{16},,
{2},{8},
{4},{16},{32},,{8},{4},
,{64},,{4},,{16},{32},{4},,{64},,,,
{4},,{64},,,,
{4},{16},{64},,,,{16},,,,{4},{16},{64},,{1},{4},{64},,
{4},{2},
{4},{64},{8},{64},,,{16},,,{32},,{4},{64},,{4},,{64},,,,
{16},,{64},,{16},,{32},,{16},,,{32},,
{4},{16},,{4},,{16},,,{64},,
{4},{16},{32},{16},,,{32},{64},,{16},{64},,{16},{32},{64},
{16},{32},{64},{16},,,{32},,{8},{16},{64},,,,{4},{32},,{4},,{32},,
{4},{16},{64},,,,{16},,,,
{8},{16},{8},{16},{32},,{64},,{32},{8},{16},,{8},{64},
{16},,{32},{64},{4},{16},,{64},,,,,,{16},{32},,,{16},,{64},,,,
{16},,{64},,,,{16},,{64},,{4},{16},,{64},,,,{8},{32},{4},{16},,,{64},,,,
{16},,,{64},,{16},,,{32},{16},,{64},,
{4},{16},{32},{8},{64},{16},{32},{64},{4},,{64},,,,
{4},,{64},,,,{4},{16},{64},,
{16},,,{64},,,,{4},,{32},{8},
{4},{16},,,,,{64},,,,{16},,{64},,,,{16},,{64},,,,
{8},{64},{32},{64},{16},{64},,,,{16},,,{64},,,,{16},{64},,{1},{64},,,,
{4},{64},,
{4},,
&inote_2=(125){32},{16},{64},1>1[64:517],{1},,{4},,,{64},,
{4},{16},{32},{4},
{1},,{16},,,{64},,,,
{4},{1},
,{2},,
{1},,{64},4,
{1},{16},{32},
{8},{4}5,{1},{16},,{32},,
{64},3,{4},,{16},,,{64},6h[#3.059999],
{1},{4},,{16},{64},,
{2},{32},{16},{32},{16},{32}3/5,{1},{4},{64},,,,
{16},,,{4}1h[32:15],,{16},,{64},,{4},{16},,,{64},,,2h[#0.8699989],
{4},{32},{4},,,{16},{2}3h[#0.9900017],
{64},,{4},,{8},{32}5/4,{4},,{32},3/6,
{4},,{32},4,{16},{64},,{16},{64},,
{16},,,{64},,{16},,{64},3,{16},{64},,,,,,,,{16},,{64},,,,{16},,{64},,,2,{4},{16},{64},,,,
{16},,{64},1b/2b,{16},,,{96},{3},
{16},1,{8},{32}1,{16},{32},{4},{8}8,{64},,,8,{16},{32},,{4},{64},7,
{16},,{64},,,7,{4},{16},{32},{16}1/7,{8},{16}7/1,
{8},,{16},{64},8,{16},,{64},,,8,{16},,{64},,,,{16},,,{32}1,{16},,{32},1,
{16},,{32},,{16},,{32},2,{16},,{32},2,{16},{32},{16},{32},{16},,
{32},2/8,{16},,{64},,{96}8bx/2bx,,{6},{32},{8},{32},1h[#1.139999],{8},{16},,{64},,,,{4},{16}2h[#1.050003],
{4},{16},{32},,{16},{64},,,3h[#1.110004],,,,,{16},,,{32},,
{16},,{32},,{16},4,{8},{64},{8},{64},{32},{16},{8},8h[#1.110001],
{4},{48},,{16},,{64},,{192},{64}7h[#1.050003],{16},,{64},,,,{16},{32},{64},{16},{64},{16},,{32},{64}6h[#1.110001],
{4},,{16},{64}5,{4},{8},{32},
{16},,{32},1-5[64:19],{4},,{32},,{4},,{64},,,8-4[16:5],
{4},,{64},,,,{4},,{16},6h[4:3],
{2},{16}5h[16:3],
{2},{16}3h[#1.440002],{2},{8}4h[16:3],
{4},{16},{32},,{16},2h[#3.330002],{4},
,{64},,{32}7p5[64:57],{4},,{32},,{4},,{64},,,,
{4},,{64},,,7h[#3.209999],
{4},{16},{64},,,,{16},,{64},,,2q4[64:55],{16},{4},{16},{64},,{1},{4},{64},,
{4}4h[#1.080002],{16},{4},{16}3h[#1.110001],{8},{4},
{64},{8},{64}2h[#1.080002],,,{16},,,{32},,{4},{64},1bx,{4},,{64},,,5h[#1.110008],
{16},,{64},,{16},,{32},,{16},,,{32},6h[#1.050003],
{4},{16},,,,{64},7h[#1.080002],{4},,{64},,,8bx,
{4},{16},{32},{16},,,{32},{64}8/1,,{16},{64},,{16},{32},{64},
{16},{32},{64},{16},,,{32},7/2,{8},{16},{64},,,,{4},{32},6/3,{4},,{32},5h[#0.75]/4h[#0.75],
{4},{16},{64},,,,{16},,,5/4,
{8},{16},{8},{16},{32},,{64},,{32},{8}5bx<8[8:7]/4bx>1[8:7],{16},,{8},{64},
{16},,{32},{64},{4},{16},,{64},,,,,,{16},{32},,,{16},,{64},,,,
{16},,{64},,,,{16},,{64},7h[#1.109993],{4},{16},,{64},,,,{8},{32}1h[#0.9899979],{4},{16},,,{64},,,6h[#1.139999],
{16},,,{64},,{16},,,{32},{16},,{64},4,
{4},{16},{32},{8},{64},{16},{32},{64}B6/E6,{4},,{64},,,B4/E4,
{4},,{64},,,E2/B2,{4},{16},{64},,
{16},,,{64},,,B7/B2,{4},,{32},{8}E8/B7/B6/E6/E2/B2/B3/E4,
{4},{16},,,7h[#1.050003],,{64},,,,{16},,{64},,,,{16},,{64},,,2h[#1.080002],
{8},{64},{32},{64},{16},{64},,,,{16},,,{64},,,,{16},{64},,{4},{16},,,{32}Cfh[32:61],
{4},,{16},{64},,{4},{64},,
{4},,
&inote_3=(125){32},{16},{64},3h[#5.34],{1},,{4},,,{64},,
{4},{16},{32},{4}5<8[64:139]/4>1[64:139],
{1},,{16},,,{64},,,,
{4},{1}2h[#4.799999]/5<8[4:9],
,{2},,
{1},{4},,,{16},,,{64},,,5h[#2.429998],
,,{1},{16},{32},
{8},{4}3h[8:11],{1},{16},,{32},,
{64},,{4},,{16},,,{96},{192}7v5[8:11]/3v1[8:11],
,{1},{4},,{16},{64},{192},,{64},
{2},{32},{16}8/1,{32},{16},{32},{4}3/6<3[64:69],
{1},{64},,,,
{16},,,{4}6h[12:5]/5>3[64:11],,{16},,{64},,{4},{16},,,{64},,,3h[#0.8400002]/4<6[16:3],
{4},{32},{4},,,{16},{2}5h[2:1]/4h[2:1],
{64},,{4},,{8},{96},8-5[4:1]/1-4[4:1],{4},,{24},{32},
{4},,{32},4,{16},{64},5,{16},{64},6h[64:13],
{16},,,{64},,{16},,{64},5,{16},{64},4,,,,,,3h[#0.3600006],{16},,{64},,,,{16},,{64},,,6/3,{16},{64},6/3,
{16},{64},7/2,{16},{64},2/7,{16},{64},8/1,{16},,{64},,{32}2,{16},{64},2,{16},{96},{192},3,{16},{64},{192},,{64}3,{4},{32},{16}5,
{32},5,{16},{32}7,{16},{32}7,{4},{32}3,{16},{32}3,{16},1,{32},1,{4},{64},4h[#1.049999],
{4},,{32},{16},{8},{16}6/3,
{32},6/3,{16},{32}7/2,{16},{32}7/2,{16},{64},8h[#0.7200012],{16},,{64},,,B2,{16},,{64},,,,{16},,,{32}4h[#0.7200012],{16},,{32},B7,
{16},,{32},,{16},,{32},E8,{16},,{32},B6,{16},{32},{16},{32}B8,{16},,
{32},E2,{16},,{64},,{96}B3,,{6},{32}C,{8},{32},6h[#1.860001]/3p5[4:3],{8},{16},,{64},,,,{4},{16},
{4},{16},{32},,{16},{64},,,,3h[#1.710007]/6q4[64:41],,,,{16},,,{32},,
{16},,{32},,{16},,{8},{64},{8},{64},{32},{16},{8},5<8[64:21]/4>1[64:21],
{4},{48},,{16},,{64},,{192},{64},{16},,{64},,,,{16},{32},{64}2bx,{16},{64},{16},,{32},{64}7/2,
{16},,,{64}6,{16},,{64},,,6,{16},,{64},,,6x,{16},,{64},,,{192},{48}2x/5x,{16},,{64},,,{192},{32}4x/3x,
{16},,{32},4,{4},{16}2b,,,,{32},5,{4},{64}8b,
{4},{32},{64}6,{16},,{64},,,8,{16},,{64},,,C,{16},,{64},,,4,{16},,{64},,,2,
{16},,,C,{8},{16}7-4[16:3],{2},{16}2-5[16:3],
{2},{16}5,{8},{64}6,{16},,{32},{64}6b,{16},,{64},,,3,
{8},{64},,,2,{16},,{64},,,2b,{16},{32},,{64},3h[#1.200005],{16},{32},{4},
{64},,,4,{16},,,{64},6,{4},{8},{32}4,{16},,{32},5/6h[64:35],{4},{16},{64},5,
{16},,{64},,,3,,,{4},,{32},{64}4/3h[#1.110001],,
{4},{16},{64},,,4<7[32:11],{16},,{64},,,6bx,{16},{4},{16},{64},,{8},{32}8,
{4},{32},8bx/1bx,{16},,,{64},,,E8,{16},,{64},,,E6,{16},,{64},,,E4,
{16},,{64},,,C,{4},{16},{4},{16}B6,{8},{4},
{64},{8},{64}C,,,{16},,,{32},,{4},{64}B8/B1,,{4},{16},{32},{16}B6/B3/Cf,
{8},{64}8-4[32:3],,{16},,{64},,{16},,{32},,{16},,,{32},1-5[32:3],
{4},{16},,{8},4,{16},2,{8},{16}1bx,
{8},{64}3,,{16},,{32},{8}4,{16},5bx,{8},{32}6h[#1.139992],{64},,{16},{64},,{16},{32},{64},
{16},{32},{64},{16},,,{32},3h[#1.079994],{8},{16},{64},,,,{4},{32},5h[#1.110001],{4},,{32},{64},
4h[#0.7200012],{4},{16},{64},,,,{16},,{64},,,7,
{16},{8},{32}7,{16},{32}6,{16},5,{32},4,{64},,{32},{8}3h[#0.3600006],{16},,{8},{64}4,
{16},,{32},{64}3,{16},,{64},,,3,{16},{64},4,{16},{64},5,,,,,,6,{16},{64},7h[#0.4199982],{32},,{16},,{64},,,,
{16},,{64},,,,{16},,{64},7<4[16:3],{4},{16},,{64},,,,{8},{32}2>5[64:17],{4},{16},,,{64},,,,
{16},,,{64},,{16},,,{32},{16},,{64},7-4[32:3]/3-8[32:3],
{4},{16},{32},{8},{64},{16},{32},{64}Ch[16:9],{4},,{64},,,,
{4},,{64},,,E8/E2,{4},{16},{64},,
{16},,,{64},6,,,{16},,{64},3,{16},,{64},,,6/3,{16},,{64},,,7h[#1.080009]/2h[#1.080009],{8},
{4},{16},,,,,{64},,,B8/E8/B7,{16},,{64},,,B1/B2/E2,{16},,{64},,,B5/B4/B3/B6,
{8},{64},{32},{64},{16},{64},,,8v5[32:5]/2v5[32:5],{16},,,{64},,,,{16},{64},,{4},{16},,,{32}6h[8:3]/3h[8:3],
{4},,{16},{64},Cfh[64:75],{4},{64},,
{4},,
&inote_4=(125){32},{16},{64},3h[#5.34],{1},,{4},,,{64},,
{4},{16},{32},{4}5<8[64:139]/4>1[64:139],
{1},,{16},,,{64},,,,
{4},{1}2h[#4.799999]/5<8[4:9],
,{2},,
{1},,{64}5h[#2.1]/4h[#2.1],
,{1},{16},{32},
{8},{4}3h[8:11]/6h[8:11],{1},{16},,{32},,
{64},,{4},,{16},,,{96},{192}7v5[8:11]/3v1[8:11],
,{1},{4},,{16},{64},{192},,{64},
{2},{32},{16}8/1,{32},7/2,,,{4}3/6<3[64:69],
{1},{64},,,,
{16},,,{4}6h[12:5]/5>3[64:11],,{16},,{64},,{4},{16},,,{64},,,3h[#0.8400002]/4<6[16:3],
{4},{32},{4},,,{16},{2}5h[2:1]/4h[2:1],
{64},,{4},,{8},{96},8-5[4:1]/1-4[4:1],{4},,{24},{32},
{4},,{32},4,{16},{64},5,{16},{64},6h[64:13],
{16},,,{64},,{16},,{64},5,{16},{64},4,,,,,,3h[#0.3600006],{16},,{64},,,,{16},,{64},,,6/3,{16},{64},6/3,
{16},{64},7/2,{16},{64},2/7,{16},{64},8/1,{16},,{64},,{32}2,{16},{64},2,{16},{96},{192},3,{16},{64},{192},,{64}3,{16},{64},6,{16},,,5,
{32},5,{16},{32}7,{16},{32}7,{4},{32}3,{16},{32}3,{16},1,{32},1,{4},{64},4h[#1.049999]/3p7[64:19],
{4},,{32},{16},{8},{16}6/3,
{32},6/3,{16},{32}7/2,{16},{32}7/2,{16},{64},8h[#0.7200012],{16},,{64},,,B2,{16},,{64},,,,{16},,,{32}4h[#0.7200012],{16},,{32},B7,
{16},,{32},,{16},,{32},E8,{16},,{32},B6,{16},{32},{16},{32}B8,{16},,
{32},E2,{16},,{64},,{96}B3,,{6},{32}C,{8},{32},6h[#1.860001]/3p5[4:3],{8},{16},,{64},,,,{4},{16},
{4},{16},{32},,{16},{64},,,,3h[#1.710007]/6q4[64:41],,,,{16},,,{32},,
{16},,{32},,{16},,{8},{64},{8},{64},{32},{16},{8},5<8[64:21]/4>1[64:21],
{4},{48},,{16},,{64},,{192},{64},{16},,{64},,,2x/1x,{16},{32},{64},{16},{64}2x/1x,{16},,{32},7/2,
{16},,,{32}6,{64},,,3,{16},{64},6,{16},{64},2,{16},{64},6,{16},,{64},,,5/2,{16},,,{32}4x/3x,
{16},,{32},4,{16},{32}3,{16},{32}2,{16},1bx,,,,{32},5,{16},6,{32},7,{16},{64}8bx,
{4},{32},{64}6,{16},{64},7,{16},{64},8,{16},,{64},,,C,{16},,{64},,,4,{16},{64},3,{16},{64},2,
{16},,,C,{8},{16}7-4[16:3],{8},7bx,{4},{16}2-5[16:3],
{8},{16}2bx,{4},{16},5,{32},5,{16},{32}6,{16},{32}6,{64},,,6,{16},{64}6bx,
{16},{32},{64}3,,{16},{64}3,{16},{64},2,{16},{64},2,{16},{64},2bx,{16},{32},,{64},4/3h[#1.200005],{16},{32},{4},
{64},,,4,{16},{32},5,{16},{64},6,{4},{8},{32}4,{16},,{32},5/6h[64:35],{4},{16},{64},5,
{16},{64},4,{16},{64},3,,,{4},,{32},{64}4/3h[#1.110001],,
{4},{16},{64},,,4<7[64:9],{16},{64},5,{16},{64},6bx,{16},{4},{16},{64},,{8},{32}8,
{4},{32},8bx/1bx,{16},,,{64},,,E8,{16},{64},E7,{16},{64},E6,{16},{64},E5,{16},{64},E4,
{16},{64},E3,{16},{64},C,{4},{64},{16},{64}C,{16},,,{32},{16}B6,{8},{16}E5,
{8},{16}B3,{64},{8},{64}C,,,{16},,,{32},C,{4},{64}B8/B1,,{16},,{32},{8}B7/B2,
{16},B6/B3/Cf,{8},{64}8-4[32:3],,{16},,{64},8,{16},,{32},,{16},,,{32},1-5[32:3],
{16},,{32},1,{8},{16},{8},4,{16},2,{8},{16}1b,
{8},{64}3,,{16},,{32},{8}4,{16},3x,{8},{32}6h[#1.139992],{64},,{16},{64},,{16},{32},{64},
{16},{32},{64},{16},,,{32},5h[#1.079994],{8},{16},{64},,,,{4},{32},3h[#1.110001],{4},,{32},{64},
4h[#0.7200012],{4},{16},{64},,,,{16},,{64},,,7,
{16},{8},{32}7,{16},{32}6,{16},5,{32},4,{64},,{32},{8}3h[#0.3600006],{16},,{8},{64}4,
{16},,{32},{64}3,{16},,{64},,,3,{16},{64},4,{16},{64},5,,,,,,6,{16},{64},7h[#0.4199982],{32},,{16},,{64},,,,
{16},,{64},B5/B4,,,{16},,{64},7<4[16:3],{4},{16},,{64},,,,{8},{32}2>5[64:17],{4},{16},,,{64},,,,
{16},,,{64},5/4,{16},,,{32}3/4,{16},,{64},7-4[32:3]/3-8[32:3],
{16},,{64},,,7/3,{16},,{32},{8},{64},{16},{32},{64}Ch[16:9],{4},,{64},,,,
{16},,{64},,,E6/E4,{16},,{64},,,E7/E3,{16},,{64},,,E8/E2,{16},,{64},,,E1,{16},,{64},,
,C,{16},,{64},,,6,,,,,,6,{16},{64},3,{16},{64},3,{16},{64},6/3,{16},{64},6/3,{16},{64},7h[#1.080009]/2h[#1.080009],{8},
{4},{16},,,,,{64},,,B8/E8/B7,{16},,{64},,,B1/B2/E2,{16},,{64},,,B5/B4/B3/B6,
{8},{64},{32},{64},{16},{64},,,8v5[32:5]/2v5[32:5],{16},,,{64},,,,{16},{64},,{16},,,{64},,,4/6,{16},,,{32}6h[8:3]/3h[8:3],
{4},,{16},{64},Cfh[64:75],{4},{64},,
{4},,
&inote_5=(165){4},{1},,,{2},{4}6xh[8:29]/4xh[8:29],
{1},,,{4},,,2xh[2:5]/4x<8[4:9],
{1},,,,,,{4},{8},{24}8/1,
2/7,3/6,{2}5h[4:5]/4h[4:5],
{1},6h[4:7]/3h[4:7],
,{8}5/4,
{4},,,{8}7xv5[8:11]/3xv1[8:11],
{1},,{4},,{16},,,{48},{24}8/1,
{12},{24}7/2,{12},{24}3/6<3[64:69],
{1},,6h[2:1]/5>3[64:11],
{2},3h[2:1]/4<6[16:3],
{1},{24}8h[2:1]/1h[2:1],
{2},{24}2/7,{12}6/3,{4},,,{12},{2}8-5[2:1]/1-4[2:1],
{1},{8}4/3,
5/4,{4}5/6h[4:1],,{8}5/6,5/4,
{2}4/3h[4:1],{8}6/4,6/4,5/3,3/5,
{4}6/4,{8}8/2,8/2,1/7,1/7,{4}8b/2b,
{8}5,6,7,8,{4},{8}4,3,
2,1,{4},{2}4h[4:3]/3-7[64:19],
,{8}6/3,6/3,{96},7/2,{16},{48},,{8}7/2,
{4}8h[2:1],B2/B3,,4h[2:1],
{2}B7/B6,{4}E6/B6,B7/E8,
E1,E2/B2,B3/E4,C,
6h[4:3],{8}7,8,1,2,{4},1,
2,3h[4:3],{8}2,1,
8,7,{4}6,6b,5<8[64:21]/4>1[64:21],
,,,8/1x,
1x/2x,2-5[4:1]/1-6[4:1],,,,6x/1x,
2x/5x,4x/3x,
{8}3,5,3,4,{4},{8}6,4,
6,5,{4},{8}4,6,3,7,
2,8bx,1,8,2,7,2,7,
{4}1-6[16:3],1bx,,2-5[16:3],
{2}2bx,{8}6,6,7,7,
7/8,7/8,3,3,2,2,{4}2bx/1bx,
{2}4/1h[4:3],{8}4,5,{4}6,
,4,{2}5/6h[4:3],
{8}4,3,{4}2b,{2},4/3h[4:3],
{8}4q8[32:11],4,{4}4,
,1,{2}8h[8:3]/1h[8:3],
{4},{8}E8,E7,E6,E5,E4,E3,
{4}Ch[8:3],{2},{4}E8/B7,
E2/B2,B4/E5/B5,{2}Ch[8:3],
{4},B6/E6,B3/E4,Cf,
8w4[4:1],8b,,4w8[4:1],
{2}4b,{8}6/4,6/4,6/3,6/3,
6/2,6/2,3/5,5/3,6/3,3/6,3/7,3/7,
{4}4h[4:3],{8}5,5,{4}6,6h[4:3],
{8}5,5,{4}4,2h[4:3],{8}3,3,
{4}4,6h[2:1],{8}3,3,{4}2,
1,{24}1bx,2,3,4,5,6,7bx,8,1,2,3,4,5bx,6,7,8,1,2,
3bx,4,5,6,7,8,{4}1bx,8,{24}8bx,7,6,5,4,3,
2bx,1,8,7,6,5,4bx,3,2,1,8,7,6bx,5,4,3,2,1,{4}8bx,
2/7<4[4:1],7,,7/2>5[64:17],
{2}2,{192}5,{16},,,{64},,,{192},4/6,{4},7/3,
7-5[8:3]/3-1[8:3],{2}7/3,
{4}Ch[2:1],{2},{4}E6/E4,
E7/E3,E8/E2,E1,C,
E6,{8}4/6,5/3,6/4,5/3,6/3,7/2,
{1}8h[4:3]/1h[4:3],
{4}B8/E8/B7,B1/B2/E2,{2}8v5[4:1]/2v5[4:1],
{4},5/4,3/6,2/7,
{24}8/1,2/7,6/3,5h[8:7]/4h[8:7],{1},{12},{4}2h[8:9],
,,{8},{24}1x,
8x,7x,6x,5x,{3}4x,
&inote_6=(55)
{1},
{1},
{1},
{1},
{12},,,,,,,,,,6h[12:5]/4h[12:5],,
{12},,,,5h[12:7]/3h[12:7],,,,,,,,
{12}6/2h[3:1],,,,8w4[12:5],,,,,,,,
{24},,,,,,3,4,5q6[12:3],,,,,,,,,,,,,,,,
{12}4h[6:1]/7h[6:1],,,,,,8h[6:1]/2h[6:1],,,,,,
{12}7h[6:1]/1,,,,,,3h[4:1],,,6,,,
{24}5qq2[6:1],,3,3,3,,7,,6,6,6,,1p4[8:1],,8,8,8,,5b,,6,6,6,,
{24}4>1[12:1],,,2,,,4<7[12:1],,6,,6,,4qq1[6:1],,,3,,,5-8[12:1],,6,,6,,
{12}1b-4[16:1],1-5[16:1],1-6[16:1],,,,3-7[12:1],7<5[12:1],5-1[12:1],,,,
{24}7<4[12:1],,,1,,,7>2[12:1],,2,,2,,7-3[12:1],,,3,,,2V48[8:1],,1,,1,,
{24}2<7[12:1],,,6,,,2v5[12:1],,6,,6,,7-3[12:1],,,8,,,3,,2,,1b,,
{24}8qq5[6:1],,,4,,,2V41[8:1],,4,,4,,7V51[8:1],,,6,,,4>1[12:1],,2,,2,,
{24}4<7[12:1],,,5,,,4-1[12:1],,3,,3,,4s8[8:1],,,5,,,4b,,,,,,
{24}6qq3[6:1],,,,2,2,3,,,,1,,2pp5[6:1],,,,1,1,7,,,,,,
{24}7<3[8:1],,,,2,2,7p2[10:1],,,,2,,1-4[14:1],,,,,,1,,6,6,5,5b,
{24}3qq6[6:1],,,4,,,6,,7,,7,,6pp3[6:1],,,2,,,3,,2,,1,,
{24}8-5[12:1],,1,1,7,,2-5[12:1],,3,3,1,,7-4[12:1],,6,6,1,,2,,3,3,5,,
{4}4pp8[6:1],7pp3[6:1],2pp6[6:1],5b,
{24}8,,,,2,3,4w8[10:1],,,,6,,4,,,,,,2,,6,3,6,,
{4}5/4bv3[12:1],4-7[12:1]/5b-8[12:1],4b-1[12:1]*p8[12:1]/5,5/4b,
{24}2q6[12:1],,,,1,8,2,,7,,6,,3,,5,,4,,3,6,3,7,3,6,
{24}4-7[12:1],,,6,,,4qq1[6:1],,3,,3,,4<7[12:1],,,5,,,4-1[12:1],,3,,3,,
{24}4h[24:19],,,,,,,,,,,,,,,,,,,7b,,,,,
E
&inote_7=(125){32},{16},{64},,{1},,{4},,,{64},,
{4},{16},{32},{4},
{1},,{16},,,{64},,,,
{4},{1},
,{2},,
{1},{4},,,{16},,,{64},7h[#5.1]/6h[#5.1],
,,,,
{1},{16},{32},
{16},{64},3h[#2.700001]/2h[#2.700001],{32},{4},{1},{16},,{32},,
{64},,{4},,{16},,{32},{64}7h[#3.059998]/5h[#3.059998]/3h[#3.059998]/1h[#3.059998],
{32},{64},{1},{4},,{16},{64},,
{4},{16},,,{64},,,8/4,{32},{64},,,7/3,,{16},{64}5/6/2/1,{32},{1},{4},{64},,,,
{16},,{64},7h[#8.700001],{32},{4},,{16},,{64},,{4},{16},,,{32}5h[#6.510002],
{64},,{4},{32},{4},,,{64},1h[#4.380005],
{32},{2},
{64},,{4},,{16},{64},3h[#2.160004],{32},,{4},,{32},,
{4},,{32},,{16},{64},,{32},{64}6/4/2/8,{32},{64},
{16},,{32},1/3/5/7,{64},,{16},,{64},,{16},{64},,,,,,,,{16},{32},8<6[32:11]/6>4[32:11]/4>2[32:11]/2<8[32:11],{64},,,,{16},,{64},,,,{4},{16},{64},,,,
{16},{32},8h[#1.170002]/4h[#1.170002],{64},,{16},,,{96},{3},
{64},6h[#2.190002]/2h[#2.190002],{32},{16},,,{64},,,8/4,{32},,{16},,,{64},8/4,{32},{8},{16},{64},,,8/4,{32},,{16},,,{32},4h[#1.77]/8h[#1.77],
{64},,{4},{16},,,{64},,,6/2,{32},{64},{8},{64}6/2,{32},{16},
,{64},6/2,{32},{8},{32},5/4/8/1,{64},,{16},,{64},7/2/3/6,{16},,{32},7h[#1.470001]/3h[#1.470001],{64},,{16},,{64},6/2,{32},,{16},{64},,,5/1,
{16},,{64},,,4/8,{32},,{16},,{32},,{16},{64},{32},{64}7h[#1.439999]/3h[#1.439999],{32},,{16},{64},{32},{64}6>4[16:5]/2<8[16:5],{32},,{16},,
,,,{64},,{96},{48},{16},,{32},,{16},{64},,,Ch[32:67],{32},,{8},,{64}8<5[1.23##0.33]/4>1[1.23##0.33],{32},{64},{16},,,{64},8/4,
{32},{16},,{64},7/3,{16},,{64},,,6/2,{32},,,{16},{64},,,,,,,,{16},,{64},,,7/3,
{32},,{16},,{32},,{64},3h[#0.3600006]/7h[#0.3600006],{32},{16},{8},{64},{8},{64},{32},{16},,{64},7h[#3.27]/3h[#3.27],{32},{8},
{4},{48},,{16},{64},,,{192},{32}B5/E6/B1/E2,{64},,{8},{32}B8/B4/E4/E8,{64},,{16},{32},,E6/E2/B1/B5,{64},,{16},{64},,,5h[#1.860004]/1h[#1.860004],{32},{64},
{4},,{16},{64},{16},,{64},7/3,{16},,{64},,,7/3,{32},,
{16},{64},,,7h[#1.080002]/3h[#1.080002],{32},,{4},{16},,,{64},,,5h[#1.110001]/1h[#1.110001],{32},,{2},{64}2h[#1.080002]/6h[#1.080002],
{32},{64},{2},{64}4h[#1.110001]/8h[#1.110001],{32},{64},{4},,{64},6h[#3.300011]/2h[#3.300011],
{32},{16},{4},{16},,,{64},7>1[1.08##1.14]/3<5[1.08##1.14],{16},,,{32}8/4,
{16},,{32},1/5,{16},,,,{2},{8},
{4},{16},{32},,{16},{64},6h[#2.099998]/2h[#2.099998],{32},{4},
{16},,,{32},8h[#2.219994]/4h[#2.219994],{64},,{4},,{16},{32},{4},,{64},,,,
{2},{64}7h[#2.190002]/3h[#2.190002],{32},{64},
{4},{16},{64},,,,{16},,{64},5h[#2.129997]/1h[#2.129997],{32},{16},{4},{16},{64},,{1},{16},,,{32},{64}8/4/2/6h[#4.379997],
{32},{64},{4},{32},{4},{32}8/2/4h[#4.350006],{16},,,{4},
{32},{16},{32}8/2h[#4.320015],{64},,,,{16},,,{32},,{16},,,{32},8h[#4.380013],{64},,{4},,{64},,,,
{16},,{64},,{16},,{32},,{16},,{64},,,6,
{32},,{4},{16},,,{32},6/4,{4},,{16},{64}6/2/4,
,{4},{16},{32},{16},,{32},3/5/7/1>3[4.41##1.08],,{64},,{16},{64},,{16},{32},{64},
{16},{32},{64},{16},,,{32}5/7/1/3<5[4.35##1.05],,{8},{16},{64},,,,{16},,,{64},,,7/3/1/5<7[4.35##1.17],{32},,{4},{16},,,{64},,,5/3/1/7>1[4.44##1.05],
{32},,{4},{16},{64},,,,{16},,{64},1,
{32},{16},{8},{16},{8},{16},{32},,{64},3,{32},{8},{16},,{8},,
{64}5,{32},{64},{4},{16},,{64},,,,,,{16},{64},7,{32},,{16},,{64},,,,
{16},,{64},,,,{16},{32},1,{64},,{4},{16},,{64},,,,{16},{64},1/3,{32},,{4},{16},,,{64}5/1/3,
{32},{64},{16},,,{64},,{16},,,{32},{16},{32},7/5/3/1,
{64},,{4},{16},{32},{8},{16},{64}6h[#3.300003]/2h[#3.300003]/Ch[32:55],{32},{64},{2},{64}4,
{32},{64},{2},{64}8,{32},{64},{4},{16},{64},,
{16},,,{64},,,,{4},{16},,,{64},,,8/4/6h[#2.130005]/2h[#2.130005],{32},{8},
{4},{16},,,4h[#2.040001]/8h[#2.040001],,{64},,,,{16},,{64},,,,{16},,{64},,,,
{8},{64},{32},{64},{16},{64},,,,{16},,,{64}2h[#1.080002]/6h[#1.080002],{32},{64},{16},{64},,{4},{16},,{32},{16}4>8[2.28##0.54]/8<4[2.82##0.81],
{4},,{16},{64},4b,{4},{64},,
{4},,
