&title=Loveless Dress
&artist=かねこちはる (kaneko chiharu)
&first=-0.87
&des=Neofatalis
&lv_2=1
&lv_3=4
&lv_4=9+
&lv_5=13+
&inote_2=(99){4}
,,,,
,,,,
,,,,
1,,,,
2,,,,
3,,,,
4,,,,
5,,,,
6,,,,
7,,,,
8,,,,
18,,,,
2,,,,
3,,,,
4,,,,
5h[2:1],,,,
6h[2:1],,,,
7h[2:1],,,,
8h[2:1],,,,
1h[2:1],,,,
2h[2:1],,,,
3h[2:1],,,,
4h[2:1],,,,
5-8[4:3],,,,
,,,,
4-1[4:3],,,,
,,,,
8^5[4:3],,,,
,,,,
1^4[4:3],,,,
,,,,
E6,,,,
E4,,,,
E1,,,,
Cf,,,,
1b,,1,,
2,,2,,
3,,3,,
4,,4,,
5,,5,,
6,,6,,
7,,7,,
8,,8,,
1x,,2,,
3,,4,,
5,,6,,
7,,8,,
1,,8,,
7,,6,,
5,,4,,
3,,2,,
1b/8b,,,,
7-4[2:1],,,,,,
3-8[2:1],,,,,,
6-1[2:1],,,,,,
2-5[2:1],,,,,,
8^5[2:1],,,,,,
1^4[2:1],,,,,,
6-8[4:1],,,3-1[4:1],,,
7-2[2:1],,,,
Ch[16:30],,,,,,
,,,,,,
,,,,,,
,,,,
E
&inote_3=(99){4}
,,,,
,,,,
,,,,
1,,1,,
1,,,,
8,,8,,
8,,,,
2,,2,,
2,,,,
7,,7,,
7,,,,
6x/5x,,,,
34,,,,
12,,,,
78,,,,
1h[2:1],,2h[2:1],,
3h[2:1],,,,
B6,B5,,,
B3,B4,,,
8h[2:1],,7h[2:1],,
6h[2:1],,,,
B2,B1,,,
B7,B8,,,
3^8[2:1],,,,
5,5,,,
6^1[2:1],,,,
4,4,,,
2^5[2:1],,,,
E8,D8,,,
7^4[2:1],,,,
E2,D2,,,
81,81,,,
72,72,,,
63,63,,,
5h[2:1]/4h[2:1],,,,
4b,4,4,,
3,3,3,,
2,2,2,,
1,1,1,,
8,8,8,,
7,7,7,,
6,6,6,,
5,5,5,,
4,3,2,,
5,6,7,,
3,2,1,,
6,7,8,,
2,3,4,,
7,6,5,,
1,2,3,,
8,7,6,,
Cf,,,,
5b,6,7,18,,,
4,3,2,18,,,
6,7,8,12,,,
3,2,1,87,,,
7,8,1,E2/E3,,,
3,4,5,E7/E8,,,
8,7,6,1,2,3,
6,5,4,3x>6[8:15],
,,,,,,
,,,,,,
,,,,,,
,,,,
E
&inote_4=(99){4}
,,,,
,,,,
,,,3,
{12}8,,,,,,7,,,,,,
6,,,,,,,,,4,,,
3h[4:1],,,4,,,,,,5,,,
6h[4:1],,,5,,,,,,6,,,
1,,,,,,2,,,,,,
3,,,,,,,,,5,,,
7h[4:1],,,6,,,,,,4,,,
2h[4:1],,,3,,,,,,5,,,
{16}8x/1x,,65,,65,,,34,,34,,2,1,,1,,
18,,34,,34,,,65,,65,,7,8,,8,,
81,,65,,75,,,12,,13,,4,5,,7,,
18,,34,,24,,,87,,86,,5,4^1[4:3],,,,
{12}4b/8h[4:1],,,,,,7h[4:1],,,,,6h[12:7],
5p8[4:1],,,,,,,,,7,8,1,
2^7[8:3],,6,6,,,,,,6,5,4,
3^6[8:3],,7,7,,,,,,5^8[4:3],,,
5/1h[4:1],,,,,,2h[4:1],,,,,3h[12:7],
4,,,B5/B6,,,B7/B8,,,2,1,8,
7^2[8:3],,3,3,,,,,,3,4,5,
6^3[8:3],,2,2,,,,,,1w5[8:1],,,
1b,,,{16}E8,B8,{24}E3,B3,B4,{32}A8,D8,A7,D7,A1,D2,A2,D3,{16}B7,B2,B6,B3,
{12}5xs1[2:1],,,,,,,,,2,3,4,
5h[12:8],,7,8,,,,,,7,6,5,
4h[4:3],,2,1,,,,,,8w4[8:1],,,
8x,,,{24},,,,2,,2,,,,7,,7,D7,A6,D6,A5,D5,
{12}4xz8[2:1],,,,,,,,,7,6,5,
4h[4:3],,2,1h[12:5],,,,,,2,3,4,
5h[4:3],,7,8h[2:1],,,,,,,,,
{16}7x/2x,,65,,43,,,78,,12,,8,8,,1,,
72,,43,,65,,,12,,78,,1,1,,8,,
{24}E2,B2,B3,E8,B7,B6,D2,A2,D3,D8,A7,D7,E3,B3,B4,E7,B6,B5,A3,D4,A4,A6,D6,A5,
{4}Cf,,63,72,
{16}8b/1b>6[8:3],,,,,,7,7,,,,,{12}8,1,2,
{16}8/3V52[8:4],,7,7,,6,,7,,,,,6,,7,,
1/8<3[8:3],,,,,,2,2,,,,,{12}1,8,7,
{16}1/6V47[8:4],,2,2,,3,,2,,,,,,,2,,
3/4h[8:5],,2,1,,8,,1,,2,3,,,,6,6,
{12}6/5h[8:5],E7,E8,E1,E2,E3,{16}1,8,7,,,,2,,
3^8^3[4:3]/6,,,,,,7,7,,,6,,5,,6V84-2[4:3],,
,,,,,,,,E2,,,,E6,,,,
2b<4[8:3]/7bh[4:1],,,,,,5,5h[16:9],,,,,{12}3,2,1,
{16}8>7[8:3],,6,6,,7,,6h[16:3],,,,,85,,14,,
2/3<2[4:3],,,,{12}B7,B8,B1,B2,B3,B4,B5,B6,B7,
{16}B8,,,C,,,,,{32}E2,B2,B3,E4,E8,B7,B6,E6,A2,D3,A3,D4,A7,D7,A6,D6,
{16}2^7-3[2:1],,6,6,,5,,4,,5,5,,,,1,8,
7^2-6[2:1],,3,3,,4,,5,,4,4,,,,8,1,
2-5[4:1],,,,,,1,8,7-4[4:1],,,8,,,1,1,
{24}B1,B2,B3,B8,B7,B6,E2,E3,E4,E8,E7,E6,{32}A1,A5,D2,D6,A2,A6,D3,D7,A3,A7,D4,D8,A4,A8,D5,D1,
{4}Cf,E2/E3/B2,E8/B7/E7,E6/E5/E4,
{12}6h[4:3]/3b,E3,B2,B1,E4,C,E8,E5,B5,B6,,,{8}78,65,43,12,
{12}3h[4:3]/6,E7,B7,B8,E6,C,E2,E5,B4,B3,,,{8}21,34,56,87,
{12}6h[4:3]/1,E1,B8,B7,E2,C,E6,E3,B3,B4,,,{8}43,78,65,12,
{12}3h[4:3]/8,E1,B1,B2,E8,C,E4,E7,B6,B5,,,{8}56,21,34,87,
{24}6,E8,6,A8,6,E1,6,A1,6,E2,6,A2,6,E3,6,A3,6,E4,7,,,,,,{8}73,15,84,62,
{24}3,E2,3,A1,3,E1,3,A8,3,E8,3,A7,3,E7,3,A6,3,E6,2,,,,,,{8}26,84,15,37,
{24}6,E4,6,E3,6,E2,6,E5,6,C,6,E1,7,,,,,,3,E6,3,E7,3,E8,3,E5,3,C,3,E1,2,,,,,,
6,E4,7,E3,8,E2,E6,3,E7,2,E8,1,6,3,7,2,8,1,7,,3qq5b[24:43],,6pp4b[24:41],,
{8},,,,,,
,,,,,,
,,,,,,
,,,,
E
&inote_5=(99){4}
,,,,
{12}E4,E6,E3,E7,E2,E8,B1,B8,B2,B7,B3,B6,
E4,E6,E3,E7,E2,E8,B2,B7,B3,7,B4,B5,
1,E6,E4,E7,E3,E8,2,E5,E3,E6,E2,7,
4,B7,B4,B6,B3,B5,B2,B4,B3,7,8,1,
2,E8,3,6,E3,E6,E2,E1,E3,6,5,4,
3,B6,2,7,B2,B8,B3,B1,B2,6,B1,B6,
8,E5,E2,E6,E3,E7,4,E1,E4,E8,E3,6,
1,B5,B2,B6,B3,B7,B4,B8,B3,7,5,3,
1,E5,3,7,E3,E7,E5,E1,E4,6,8,2,
4,A5,2,6,A3,A7,A4,A8,A3,7,A2,A6,
{16}Cf/1w5[16:1],,82,,1,,,78,,12,,54,54,,E7/E3,,
8w4[16:1],,17,,8,,,21,,87,,45,{32}45,,6,5,6,,3,4,
{16}3-6[16:1],,72,,63,,,78,,12,,45,45,,2,7,
{24}1,5,2,5,3,5,4,8,4,7,4,6,4,5,3,6,2,7,1-6[16:1]*-4[16:1],,,,,,
1b>8[2:1],,,,,,,,,,,,8V63[2:1],,,,,,,,,,3q1[12:4],,
3<8[8:3],,,,,,,,,,,,,,,,,,2<4[2:1],,1<4[12:5],,8<4[12:4],,
7^4[4:1],,,,4v1[24:5],,4v2[8:1],,,,,,,,,,,,7>5[2:1],,8>5[12:5],,1>5[12:4],,
2^5[4:1],,,,5v8[24:5],,5v7[8:1],,,,,,,,,,,,1q5[16:1]/5q1[16:1],,,,,,
1b<1[2:1]/5b,,,,,,,,,,,,1qq5[2:1],,,,,,,,,,5q8[24:11],,
4-2[8:1],,,,,,4-1[8:1],,,,,,4,,,,,,7<1[4:1],,5>1[12:2],,3^1[12:1],,
1p8[4:1],,,,8-5[24:5],,7-5[8:1],,,,,,,,,,,,2>8[4:1],,4<8[12:2],,6^8[12:1],,
8q1[4:1],,,,1-4[24:5],,2-4[8:1],,,,,,,,,,,,1-5[16:1]/8-4[16:1],,,,,,
{4}1b/8b/E1f,{16}1,8,{24}4,5,4,{32}6,3,6,3,7,2,7,2,{16}8,1,8,1,
27,,,,{24}3,4,3,4,3,4,3,4,3,4,3,4,{12}3,21,87,
2^7[8:3]/1,,4,3,,,,,{24}6,6,{12}6,78,12,
7^2[8:3]/8,,5,6,,,,,,{24}4/5-1[16:1],,,4,3,2,
1x/5x,,,,,,,,,,2,2,2,,,,7,7,7,8,6,1,5,2,
43,,,,,,6,5,6,5,6,5,6,5,6,5,6,5,6,,74,,83,,
{12}1qq6[8:3]/2pp5[8:3],,83,12,,,,,,43,52,61,
8pp3[8:3]/7qq4[8:3],,16,87,,,,,,{32}1-5[16:1],,8,2,1,,2,8,
{16}1x>7[16:3],,7,,12,,,8,,12,,18,1/8-4[16:1],,7,,
8<2[16:3]/1,,2,,78,,,1,,78,,18,{12}18,2,7,
{24}1,7,2,6,3,5,2,8,3,7,4,6,3,4,2,5,1,6,5,6,4,7,3,8,
{4}Ch[4:3],,5-1[8:1],5,
{16}2b-6[8:1]/7b,,3/6-2[8:1],,7/2^5[8:1],,5-1[8:1],5,,,,,{12}6,7,8,
{16}8-4[8:1]/1,,4-8[8:1],3v1[8:1],,1v3[8:1],,3,,,,,5,,6,,
7-3[8:1]/2,,6/3-7[8:1],,2/7^4[8:1],,4-8[8:1],4,,,,,{12}3,2,1,
{16}1-5[8:1]/8,,5-1[8:1],6v8[8:1],,8v6[8:1],,6,,,,,,,34,,
5/2-4[8:1],,4-8[16:3],7,,8-6[8:1],,6-2[16:3],,5,5,,,,7,7,
{12}7s3s7[2:1],7,7,7,8,1,{16}2,1,8,,,,6^8[8:1]/3^1[8:1],,
45,,,,,,72,81,,,6-8[8:1]/2-4[8:1],,8^6[8:1]/4^2[8:1],,6v8[4:1]/2v4[4:1],,
,,,,,,,,Ch[4:1]/4-8[8:1],,,,4,,,,
{24}6,5,6,4,6,3,6,2,6,1,6,8,6,7,6,8,6,1,6,2,6,3,6,4,
5,3,6,3,7,3,8,3,1,3,2,3,1,3,8,3,7,3,6,3,5,3,4,3,
5,2,5,3,5,4,5,6,5,7,5,8,5,1,6,2,7,3,8,4,7,3,6,2,
7,4,6,4,5,4,3,4,2,4,1,4,{32}8,3,8,3,6,4,6,4,5,1,5,1,4,,,,
{24}2,1,3,1,4,1,5,1,5,8,5,7,5,6,4,6,3,6,2,5,4,7,1,8,
3,7,3,6,3,5,3,4,2,4,1,4,8,4,8,5,8,6,1,7,2,8,3,1,
4,8,5,8,6,8,7,8,1,8,2,8,3,8,3,1,3,2,3,4,3,5,3,6,
{24}3,7,4,6,2,5,3,4,2,6,5,7,{32}1,8,2,7,1,8,3,6,2,7,4,5,3,6,4,5,
{4}4h[4:3],6,8,2-5-1-4b[4:3],
{12}2b/1b,8,7,8,7,6,7,6,5,A8,,,{8}7^5[32:1]/8,1/2^4[32:1],7-4-8-5b[4:3]/8,12,
{12}7x/8x,1,2,1,2,3,2,3,4,A1,,,{8}2^4[32:1]/1,8/7^5[32:1],2/1-5-8-6b[4:3],87,
{12}2x/1x,3,4,3,4,5,4,3,2,A1,,,{8}7^5[32:1]/8,1/2^4[32:1],7/8-4-1-3b[4:3],12,
{12}7x/8x,6,5,6,5,4,5,6,7,A8,,,{8}2^4[32:1]/1,8/7^5[32:1],21,87,
{24}3x,B8,2,B7,1,E7,2,C,1,B6,8,A6,1,B3,8,B4,7,E5,8b,,,,,,{8}7^5[32:1]/8,1/2^4[32:1],78,12,
{24}6x,B1,7,B2,8,E3,7,C,8,B3,1,A3,8,B6,1,B5,2,E5,B8,1,B7,2,E7,3,C,8,B6,1,A6,2,B3,7,B4,8,E5,1,
5x,E1,6,B1,7,B2,8,B3,1,B4,2,E5,3b,,,,,,4x,E1,3,B8,2,B7,1,B6,8,B5,7,E5,6b,,,,,,
5x,E2,6,E3,7,E4,E8,4,E7,3,E6,2,7,B4,8,2,B5,1,8,,3,,6,,
{24}1,8,2,7,1,7,2,8,(88)1,8,2,6,3,6,2,7,(77)3,7,2,6,1,5,2,7,(66)3,8,1,7,8,6,1,8,(55)2,1,3qq6[24:25],
{4}6pp3[1:1],,,,
,,,,
E
