&title=Theatore Creatore
&artist=Toby Fox & Camellia
&first=0.06
&des=Grandore Creatore
&lv_5=14+
&inote_5=(185){4},,,,3h[8:1],
3h[8:1],3h[8:1],3h[8:1],
2h[8:1]/4pp5[2:1],2h[8:1],2h[8:1],2h[8:1],
6h[8:1],6h[8:1],6h[8:1],6h[8:1],
7h[8:1]/5p4[2:1],7h[8:1],7h[8:1],7h[8:1],
{16}3,5,3,5,3,5,3,5,3,5,3,5,3,5,3,5,
2,6,2,6,2,6,2,6,2,6,2,6,2,6,2,6,
{24}3,4,{12}3,{24},,6,5,{6}6,{24}2,4,{12}2,{24},,7,5,{6}7,
{8}D3,E4,E5,E6,D7,1b/8b,{4}1b/8b,
{8}5/2,5/2,{16}3,4,{8}3,5/2,{16}3,3,{8}4,5/2,
{16}3,5,4,6,{8}5,{16}7/4,4/7h[16:5],,,{8}B3,{4}B4,
{8}1/6,1/6,{16}7,8,{8}7,1/6,{16}7,7,{8}8,1/6,
2-6[8:1],3,2/8-4[8:1],7,{2}8/1w5[8:1],
{8}4/7,4/7,{16}5,6,{8}5,4/7,{16}5,5,{8}6,4/7,
{16}6,4,5,3,{8}4,{16}2/5,5/2h[16:5],,,{8}B6,{4}B5,
{8}1x/7x,1/7,{16}5,4,{8}5,6/3,{24}2/1,3,4,{8}5,{24}7/8,6,5,
{4}4q5[8:3]*>5[8:3],,,7b/2b,
{8}1/6h[4:1],{24}1,2,3,{4}4>7[4:1],7>4[4:1],4,
{8}7h[4:1],5,2h[4:1],4,6,{16}7,1,7,1,{8}7,
2/6h[4:1],{24}2,3,4,{4}5>1[4:1],1<5[4:1],5,
{8}8,8,3/7,6-1[8:1]/2-5[8:1],,6/2,,,8/3h[4:1],
{24}8,7,6,{4}5<2[4:1],2<5[4:1],5,
{8}2h[4:1],4,7h[4:1],5,3,{16}2,8,2,8,{8}2,
7/3h[4:1],{24}7,6,5,{4}4<8[4:1],8>4[4:1],4,
{8}8,1/5,6/2,7/3,{2}4/8w4[8:1],
{8}2/1,{24}2/1,3/8,4/7,{4}5z1[8:1]/6s2[8:1],5/6,{8}8/4,3,
2/6,7,8/3,2,1/7,{16}5,3,6,4,{8}7,
7/8,{24}7/8,6/1,5/2,{4}4-8[8:1]/3-7[8:1],4/3,{8}1/5,6,
7b/3b,2b-5[8:1]/6b-1[8:1],,6b/2b,,4xh[8:1]/7xh[8:1],{16},6xh[8:1]/3xh[8:1],,,{8}2/5,
{16}3,4,{8}3,3/5,{16}3,4,3,2,{8}3,2/5,
7/4,{16}6,5,{8}6,6/4,{16}6,5,6,7,{8}6,7/4,
{16}2,4,3,7,5,6,1,4,3,8,5,6,{32}1,2,3,4,5,6,7,8,
{8}5b/1b,6b/2b,7b/3b,8b<5[8:1]/4b>1[8:1],,,,,7/C,
6,5,4,3,2,7/B5,6,
5,4,7/B3,6,5,4,3,2,
7/B4,6,5,4,3,2,7h[1:1],E1,
E8,E7,E6,E5,E4,E3,{4}1V75[4:1],
5V31[4:1],{8}1,8,7,6,{4}7h[8:1]/5h[8:1],
4h[8:1]/2h[8:1],1/8,{8}2/C,3,4,5,
6,7,2/B4,3,4,5,2/B6,3,
4,5,6,7,2/B5,3,4,5,
6,7,2h[1:1],E1,E2,E3,E4,E5,
E6,E7,{4}8V24[4:1],4V68[4:1],{8}8,1,
2,3,{4}4h[8:1]/2h[8:1],5h[8:1]/7h[8:1],1/8,
{8}7/C,6,5/3,4,3/5,2,7/B5,6,
5/3,4,7/B3,6,5/3,4,3/5,2,
7/B4,6,5/3,4,3/5,2,1/7-4[8:1],7,
3-8[8:1],3,6-1[8:1],6,2>5[8:1],2,7-3[8:1],7,
1-5[8:1],1,8-4[8:1],8,8/2-5[8:1],2,2/6-1[8:1],6,
6/4,4,{16}8/4,7/3,6/2,5/1,{4}8/4<8[16:3],4/B8/E8/B7,
5>1[16:3],5/E2/B2/B1,4<8[16:3],4/B6/E7/B7,
5>1[16:3],5/B3/E3/B2,4<8[16:3],4/B7/E8/B8,
5>1[16:3],5/B2/E2/B1,{2}Ch[2:1],
{4},,7,6,
5,4,{8}3h[2:1],,,5,
{2}5,{4}3,{8}4,4,
{4}5,6,7h[4:1],5,
6h[4:1],4,{8}5<3[4:3],,,4,
4,,,6,6<4[4:3],,,5,
{2}5,{4}7,6,
3,4,{2}5w1[8:3],
{16},,,,,,,,2/8,,,8/2,{48},,,,,,{24}3,4,3,
4,3,4,3,4,3,4,3,4,3,{48},,,,{16}7/1,,,7/1,{48},,,,,,{24}6,5,6,
5,6,5,6,5,6,5,6,5,6,{48},,,,{16}2/7,,,2/7,{48},,,,,,{24}1,8,1,
8,1,8,1,8,1,8,1,8,1,{48},,,,{16}6/4,,,4/6,,,1,2,
{8}8/3,{16}8,7,{4}1/6,{8}2/5,{16}3,4,{8}3h[8:1],{16}6,5,
{8}6h[8:1],{16}3,4,{8}2h[8:1],{16}6,5,{8}7h[8:1],{16}3,4,{8}1h[8:1],{16}6,5,
{8}8h[8:1],{16}4,6,{8}1h[8:1],5,{16}2,4,2,4,3,5,3,5,
4,6,4,6,5,7,5,7,6xh[8:1]/5h[8:1],,,7xh[8:1]/1h[8:1],,,{8}4h[8:1]/3xh[8:1],
{16},8,1,8,{4}7b/2b,{8}8/3-5[8:1],2,3/7-3[8:1],8,
7/2-6[8:1],1,8-4[8:1]/2-4[8:1],7,{4}8/2-8[8:1],{8}2-5[8:1]/6-4[8:1],7,
{4}2/6<1[16:3],{16}1/6,2,3,4,{4}5b>2[8:1],{8}7/5-8[8:1],6,
{4}3/5-2[8:1],5/7-4[8:1]*-3[8:1],7,{8}2/8,2/8,
{4}1-5[8:1]/7<6-4[8:1],1/7,{8}8b/3b>2-8[8:1],{16}5,4,{8}3/7-4[8:1],6,
{4}7/1-5[8:1],{8}1/8,7,2b/6b<7-1[8:1],{16}4,5,{8}6/2-5[8:1],3,
{4}2/8-4[8:1],{8}8/4,3,{4}2-4[8:1]/1-5[8:1],1-7[8:1]/2-6[8:1],
2-4[8:1]/1-5[8:1],1/2,{8}7/3,{16}2,1,{8}2,4/3,
1/6,{16}7,8,{8}7,6/5,{4}B3,B2,
B1,B8,B7,B6,
B4/E5/B5,{16}1,1,8,8,{8}B7/B6/B3/E3/B2/E7/Cf,{16},,,,2/1,2/1,
{8}B7/B8/B3/E4/B4/E8/Cf,{16},,,,8/7,8/7,{4}B1/B2/B5/E6/B6/E2/Cf,B7/B8/B3/E4/B4/E8/Cf,
{2}B6/B7/B2/B3/E3/E7/Cfh[4:1],{8}1b/7b<6-4b[8:1],{16}8,8,{8}7/3-1[8:1],2,
3/8-4b[8:1],7,8/4,3,5b/2b>3-5b[8:1],{16}1,1,{8}2/6-8[8:1],7,
6/1-5b[8:1],2,1/5,6,{16}2,1,3,8,4,7,5,6,
4,5,4,5,{4}3x/6x,{24}1b/7h[8:1],2,{12}3,{48},2b/7h[8:1],,3,,4,,,,,{24}3b/8h[8:1],4,5,
{48},,,3b/8h[8:1],,4,,5,,,,,{4}2b/1b,{24}8b/2h[8:1],7,{12}6,{48},7b/2h[8:1],,6,,5,,,,,{24}6b/1h[8:1],5,4,
{48},,,6b/1h[8:1],,5,,4,,,,,{4}7b/8b,{24}3b/8h[8:1],4,{12}5,{48},2b/8h[8:1],,3,,4,,,,,{24}1b/7h[8:1],2,3,
{48},,,1b/7h[8:1],,2,,3,,,,,{4}8b/1b,{32}2b<2b[4:7]*>2b[4:7],1b/3b,4b/8b,5b/7b,{8}6b,,,,,,,,,,,,,,,,,,,{4}4/2h[4:1],
3h[4:1],1h[4:1],2h[4:1],
8h[8:3],{8}1,1h[2:1],,,7,7h[2:1],
,,,8h[16:3],{16},6h[16:3],,,{4}7h[4:3],
{8}8,8,{4}8,5h[4:1],6h[8:3],
{8}4,4h[2:1],,,5,5h[8:3],,,{4}3h[4:1],
4,{16}5/3-1[8:1],,,4,{8}3-5[8:1],6,
{16}7/3>8[8:1],,,6,{8}3,6,{4}5/2,{16}4/6-8[8:1],,,5,
{8}6-4[8:1],3,{16}2/6<1[8:1],,,3,{8}6,3,{4}4/7,
{16}5/3-1[8:1],,,4,{8}3,5,{16}4/6-8[8:1],,,5,{8}6,4,
{4}5/3,{16}1/8,,,3,{8}4,5/2,{16},6,{8}5,
{16}4/7,,,1,{8}8,7/2,{2}7xh[4:3]/2xh[4:3],
{8},,,,D7,E6,E5,E4,
D3,8b/1b,{4}1b/8b,{16}2,2,4,4,5,5,7,7,
{32}2-5[8:1],3,{16}4,{32}8-4[8:1],7,{16}6,{8}2,8,1-5[8:1],8/7<6-4[8:1],1,7,
{16}8,8,7,7,{32}1,2,3,4,5,6,7,8,{4}5b/1bh[4:1],{16}8,8,2,2,
{32}7-4[8:1],6,{16}5,{32}1-5[8:1],2,{16}3,{8}7,1,8-4[8:1],1/2>3-5[8:1],8,2,
{16}1,1,2,2,{4}3x/8xh[4:1],{32}1b,2,3,4,1/5x,2,3,4,{4}5x/1xh[4:1],
{32}8b,7,6,5,8/4x,7,6,5,{4}4x/8xh[4:1],{32}1b,2,3,4,1/5x,2,3,4,1/5x,2,3,4,{8}5x,
{32}8b,7,6,5,8/4x,7,6,5,8/4x,7,6,5,{8}4x,{2}Ch[2:5],
{8},,,,,,,,,,,,,,,,,
,,6h[8:1]/1h[8:1],{16},7h[8:1]/2h[8:1],,,{8}3/8,8/3,
{24}2,1,2,1,2,1,{8}3,3,4/6,4/6,{24}7,8,7,8,7,8,
{8}6,6,{24}3,4,3,4,3,4,{8}2,2,7/1,7/1,
{32}8b,7,6,5,8/4x,7,6,5,8/4x,7,6,5,8/4x,7,6,5,{4}4xw8[8:1],{96}4b>4[8:15]*<4[8:15],Cf,
E
