&title=愛包ダンスホール
&artist=Gohgo
&first=0.02
&des=Holinality
&clock_count=4
&lv_5=13
&inote_5=(141)
{4}
,,,,,,,,
{16}
5h[16:28],,,,E2/B1,,,,
,,,,E3/B3,,,,
,,,,E2/B1,,,,
,,,,E3/B3,,,,
4h[16:28],,,,E8/B8,,,,
,,,,E7/B6,,,,
,,,,E8/B8,,,,
B5/B4,,E6/E7,,E8/B7,,,,
2q6[8:1],,,,2/7<4[8:1],,,,
7,,,3,,,2,,
{64}
7/1,,,,,,,,
{16}
1,,
{64}
7,,,,,,,,
{16}
1,,
{64}
7,,,,,,,,
{16}
4,,6,4,,5/4,
,,3/5,,4/6,,,3,
,5,,,6,4,,5w1b[8:1],
,,,,,,,,
,,,,,,,3h[4:1]/7,
{16}
,,,,7pp5[8:3],,,,
7/4,,,3,,,2,,
1-3[8:1],,6,,1-5[8:1],,7,,
1,,6,,,6/4,,3/5h[4:1],
,,,,2qq4[8:3],,,,
2/5,,,6,,,7,,
8-6[8:1],,3,,8-4[8:1],,3,,
8,,3,3,,3/5,,4/6h[4:1],
,,,,2pp5[8:3],,,,
2/6,,,7,,,8,,
8-6[8:1],,3,,8-4[8:1],,3,,
8,,3,,,3/5,,6/4h[4:1],
,,,,7qq4[8:3],,,,
7/3,,,2,,,1,,
1-3[8:1],,6,,1-5[8:1],,6,,
1,,6,6,,6/4,,3/5,
{16}
,,3x,,E6,,1x,,
4x,,1x,,5x,,3x/6x,,
2x,,6x,,5x,,3x,,
5x,,8xpp5[8:3],,2x/7x,,8x,,
,,4,,3,,2,,
7<4[8:1],,8,,1/7,,2,,
1/3,,7,,6/8v3[8:1],,7,,
2v5[8:1]/8,,1,,2,,7,,
,,6,4,5h[8:1],,3,3,
,5h[8:1],,2,2,,7h[8:1],,
1,1,,7,,1,8,2,
7,3,6,4,5,3,4,2,
5,1,6hx[4:1],,2,,3,,
4,,4-2[8:1],,,,4/5-8[8:1],,
6,,5/4-1[8:1],,3,,4/5-7[8:1],,
6,,5/4-2[8:1],,3,,4/5,,
7,,,,5,6,4,7,
4h[8:1],,7,7,,,3,3,
8,,3h[8:1],,7,,3h[8:1],8,
,,3h[8:1],,7,,3h[8:1],,
6x,,,,4,3,5,2,
5h[8:1],,2,2,,,3,3,
6,,3h[8:1],,6,,3h[8:1],4,
,,3h[8:1],,4,,3,,
5-8[8:1]*-2[8:1],,,,5,,,,
1>4[8:1],,,,1/6,,,,
5-8[8:1]/7,,6,,5-2[8:1]/3,,4,4,
,,7,,6,,5,,
3,4,2,,5,,4,35,
,6,,5,46,,5,,
2>5[8:1]/7,,,,,,,,
7xq1-7[4:1],,,,,,,,
{16}
,,3,4,2h[16:3],,4,4,
,2,2>5[8:1],,1,,2,,
,,6,5,7h[16:3],,8,8,
,5,5w1[8:1],,7,,5,,
,,3x,5x,4x,,7,5,
,6,4,,3/5,,4/6,,
3/5-2[8:1],,4,,5/7,7,,6,
,5h[16:3],,,4>1[8:1],,,,
4,,7,,6,,5,1,
,5,,8,8v3[8:1],,6,,
8/6,,6,,4,,6,4,
,5,,,5z1[4:3]/4s8[4:3],,3/6,,
4/5,,,,,,,,
,,,,,,,,
{16}
7bx,1bx,,1bx,,8bx,,2bx,
2xb-6b[8:1]/7xb-3b[8:1],,,,7bx/2bx>5[8:1],Cf,,,
2x,,,,7qq1[8:2],,,,
7/2,,,3,,,4,,
{64}
E2,B1,B8,E8,,,,,
{16}
4h[8:1],,
{64}
E2,B1,B8,E8,,,,,
{16}
4h[8:1],,
{64}
E2,B1,B8,E8,,,,,
{16}
,3,2,,6,7<4[8:1],
,,7,,3,2,,2>5[8:1],
,,2,,6,7,,8/3,
,,1/6,,7,,2,,
7/3,,2-4[8:1]/6-8[8:1],,7/3,,2/6,,
A8/A4,,,,3/7qq1[8:2],,,,
7/2,,,3,,,4,,
{64}
E2,B1,B8,E8,,,,,
{16}
4h[8:1],,
{64}
E2,B1,B8,E8,,,,,
{16}
4h[8:1],,
{64}
E2,B1,B8,E8,,,,,
{16}
,3,2,,6,7<4[8:1],
,,7/3,,3,2,,2>5[8:1],
,,2,,8,7,,6/4,
,3,2/4,,6,,75,,
7,,1,1,,8,,2bh[4:1]/8bh[4:1],
,,,,,,3,4,
2h[8:1],,6,5,7h[8:1],,4,5,
3h[8:1],,5,4,6h[8:1],,3,4,
,6,5,,4,,6/3,,
3-1[8:1]/6-8[8:1],,,,3-5[8:1]/6-4[8:1],,,,
3-1[8:1]/6-8[8:1],,,,3/6,,,,
1/6,,8/3,,2,7,1,8,
,2,8h[2:1],,7x-4[8:1],,7x,,
7bx,,,,6xpp8[16:3]/3xqq1[16:3],,,,
6/3,,,A1/A8,,,2,,
7<4[8:1],,6,,2v5[8:1]/7,,3,,
2,,8,8,8,,3qq1[16:3],3,
,,3,,6pp8[16:3],6,,6,
,,4,,4,4,,4hx[1:1]/7x,
,,1x,,1x,,7x,,
1x,,7x,7x,,1x,,7bx,
,,,,,,7,1,
8h[4:1],,2,2,,,,,
3,5,4,6,4-1-4[2:1],,5,,
4/5,,6,6,,7,,8,
,,7,,7<3[4:1],,3,,
3>7[4:1]/7,,,,7pp5[2:1],,,,
4,,4,,3,,3,,
2,,2,,1-5[8:1],,7,,
1b,,,,7>2[4:1],,,,
2v5[4:1],,,4,,,3,,
3,,2,,6x-8-2-4-2-8-6b[8:14],,1bxh[8:15],,
6b,,,,,,,,
,,,,,,,,
,,,,,,,,
,,,,,,,,
2b-6b[8:1]/7b-3b[8:1],,,,7b/2b>5[8:1],Cf,,,
2x,,,,7qq1[8:2],,,,
7/2,,,3,,,4,,
{64}
E2,B1,B8,E8,,,,,
{16}
4h[8:1],,
{64}
E2,B1,B8,E8,,,,,
{16}
4h[8:1],,
{64}
E2,B1,B8,E8,,,,,
{16}
,3,2,,6,7<4[8:1],
,,7/3,,3,2,,2>5[8:1],
,,2,,6,7,,8/2,
,,45,,17,,45,,
36,,3/7,,4-2b[8:1]/6-8b[8:1],4/6,,,
4bx/6bx,,,,,,2,,
8-5[8:1]*-3[8:1],,,,8-4[8:1],,,,
8-6-4[4:1],,2,,8,,2,2,
,,1,,7,8,,7/8,
,,1/2,,2,1,,3/5,
,,4/6,,5,4,,3b/6b,
,,,,,3,5,4,
6p5[4:1],,4,,6,,3x,3x,
{16}
,,,,7pp5[8:3],,,,
7/4,,,3,,,2,,
1-3[8:1],,6,,1-5[8:1],,7,,
1,,6,,,6/4,,3/5h[4:1],
,,,,2qq4[8:3],,,,
2/5,,,6,,,7,,
8-6[8:1],,3,,8-4[8:1],,3,,
8,,3,3,,3/5,,4/6h[4:1],
,,,,2pp5[8:3],,,,
2/6,,,7,,,8,,
8-6[8:1],,3,,8-4[8:1],,3,,
8,,3,,,3/5,,6/4h[4:1],
,,,,7-5[8:1],,,,
7/1,,,2,,,3,,
4h[16:1],,5xh[16:1]/3xh[16:1],,4xh[16:1]/6xh[16:1],,5xh[16:1]/3xh[16:1],,
4xh[16:1]/6xh[16:1],,5,4w8b[8:1],,5x/3x,,4b,
,,,,,,,,
,,B7/B2/Cf/E7/E3/B6/B3/B5/B4/E5,,,,,,
,,,,,,,,
E
