&title=ニヒルと水没都市
&artist=Neru
&first=0
&des=TCXLZ
&lv_5=13+
&inote_5=(100)
{8},,,1>4[8:1],4<7[8:1],7-3[8:1],,,,
8<5[8:1],5>2[8:1],2q7[8:1],,,,
1>4[8:1],4q1[8:1],1<5[8:1]/7h[8:4],,,,
4,53,4/2h[8:1],5,6/4w8[16:3],7/5,4b,,,
{16}26,,4,5,4,,73,,5,4,5,4,36,,
{8}2/7<5[8:1],18,72,3v8[8:1],4,53,6,7,
18,2v5[8:1]/7v4[8:1],4>1[8:1]/5<8[8:1],,,,
7/3<6[8:1],2/6-3[8:1],7h[8:3]/3qq1[8:1],,,,
2/6>3[8:1],7/3-6[8:1],2h[8:3]/6pp8[8:1],,,,
{16}1h[8:2]/7,,7,6,5,,5h[8:2]/3,,4v7[8:1],3,2,,
4/1,,2v5[8:1]*v7[8:1],3,4,,2b,,,,,,
71,,54,82,,45,27,,{32}8w4[8:1],71,62,,4,,,,{16}8b,,,,,,
{16}5h[16:2],,3,5h[16:2],,2,5h[16:2],,1<3[8:2],5h[16:2],,1,5,,,,,,
7h[16:2],,1,7h[16:2],,2,7h[16:2],,3<7[8:2],7,,3,7>5[8:3]*qq5[8:3],,,,,,,,,,,,
3h[16:2],,7,2h[16:2],,6,1h[16:2],,5,2h[16:2],,6v1[16:4],3-7[16:3],,6,3,,,,,,,
18,,27,,6,5,6,,27,,3,4,3,,18,,2<6[16:3]/7>3[16:3],,45,,27,,,,,,
2b/8h[16:2],,1h[16:1],7,,6,5/2h[16:3],,{32}7-1[16:1],6,5,,2,,,,2/7b,,,,
{8}2q5[8:2],37,6,7p5[8:2],8,3,2pp5[8:2],1,7h[8:1],,
{16}7,8,{8}1,2/7p5[8:2],63,3,2q4[8:2],1,6,7qq8[8:2],8,3h[8:1],,
{16}3,2,{8}1,2/7q1[8:2],64,3,4p2[8:2],5,8,7pp4[8:2],6,3h[8:1],,3,
{16}4h[16:4]/8,,7,6,5,,
4h[16:4]/3,,2,1,8,,5h[16:2]/8h[16:1],,1s5[16:3],,26,,17,,,,
{16}7,8,1bV75[16:3]/5bV31[16:3],,,,15,,,,,,
26,,37,,,48,37,26,1h[16:2]/5h[16:2],,,,
15,26,3bqq8[16:4]/7bqq4[16:4],,,,37,,,,,,
15,26,3h[16:2]/7h[16:2],,,48,37,26,1h[16:2]/5h[16:2],,,,
1s5[8:22]/5,26,
3h[16:3]/7b-2[16:1],,,,,,3b-8[16:1],,,,,,6bV82[16:1],,,,,,3bp7[16:1],,,,,,
6b,,7,,8,,1,,2,,3,,6,7,8,1,2,3,4h[16:4],,,,,,
{8}2h[8:11]/6h[8:3],,,,,6,6,,6,6,7<5[16:1],8,
{16}7b/1h[16:2],,,26,,73,8/3h[16:2],,{32}8,7,6,,4,,,,
{16}3/5h[16:2],,,62,,37,3/7h[16:2],,{32}3,2,1,,6,,,,
{8}5h[8:11]/1h[8:3],,,,,1,1,1,1,1,2,3,
4b/5h[16:1],4/6h[16:1],4/7h[16:1],3/7h[16:1],2/6h[16:1],1/5h[16:1],
{32}8b,7,6,5,4,3,2,1,8,7,6,5,8h[16:2]/4b,,,,
{16},,18,27,6b/3b,,,,27,36,4b/5bpp6[8:1],,,,1,,
2,,8v5[16:1]*-4[16:1],2,,2,8b,,,,
1<1[8:5],8<1[16:9],7<1[8:4],,6>1[8:3],,5>1[8:2],,1,,1p8[8:3],,1,,7,,6,,5,,6,,7,,
17,26,3b-8[16:1]/5h[16:4],,,,,,
5,,5-7[16:1]/1,,5-3[16:1]/2,,5-8[16:1],,5-1[16:1],,5,,5,,6,,
7q5[8:2]/2,3,4b,,5pp4[8:2],,4,,4>1[8:1],,1w5[16:3],,1,,,,,,,,
7,6,5-8[16:1],4,3,2,1/5b,,1,,26,37,48,,48,,37,26,15,,
8v6[16:2]/4v2[16:2],,26,37,48,,,,
26,37,4/8b<4[8:1],,4q8[8:1],,8p3[8:1]/4,,3<8[16:3],,2,,
1h[16:1],,1h[16:1],,1h[16:1],,3pp5[8:1]/5,,7/5p1[8:1],,38,,
8,7,6b,,5,,54,63,7b/2,,81,,81,72,6b/3,,4-8[16:1]/5bv2[16:1],,3/6b,,4/5b,,,,
82,73,64,,74,,73,62,51,,6/1V38[16:4],,71,,8bV62[16:4]*V64[16:4]/1,,,,,,,,,,
15,26,3/7b,,48,,51,,4/8b,,37,,26,,
1h[16:1]/5h[16:1],,1h[16:1]/5h[16:1],,1h[16:1]/5h[16:1],,
2h[16:1]/6h[16:1],,2h[16:1]/6h[16:1],,2h[16:1]/6h[16:1],,
{16}7b,3,7,3,7,3,{32}8b,7,6,5,4w8[16:3],3,2,1,8,7,6,5,4b,,,,
{16},,,,62,,8,1,8,,37,,1,8,1,8,72,,
{8}6/3>1[8:1],54,3b/6b,7v4[8:1],8,1b/7b,2,3,
5b/4b,6v1[8:1]/3v8[8:1],8<5[8:1]/1>4[8:1],,,,
1b/5>2[8:1],6/2-5[8:1],1h[8:3]/5pp7[8:1],,,,
8b/4<7[8:1],3/7-4[8:1],8h[8:3]/4qq2[8:1],,,,
{16}5h[8:2]/3,,3,2,1,,1h[8:2]/7,,8v3[8:1],7,6,,
8/5,,6v1[8:1]*v3[8:1],7,8,,6b,,,,,,
{16}3b/5b,,26,35,,27,36,,{32}4,35,26,,8,,,,
{16}6b/4b,,73,64,,72,63,,{32}5,64,73,,1,,,,
{16}7b/1b,,62,71,,63,72,,{32}8,71,62,,4,,,,
{16}5b<8[16:1],,{32}1,2,3,4,5b,,,,1b,,,,
