&title=翠杜
&artist=隣の庭は青い
&first=-0.49
&des=
&des_5=abcabc
&lv_5=14+
&inote_5=(180){4},{8},
,,,,{24}2h,3h,4h,
{1}5<4[4:7],
,1>8[8:9],
{2},{16}5,6,7,8,1,2,3,4,
{1}5<4[2:3],
,{12}1,
4,{48},{16}2,{12}8,5,7,3,4,2,6-3[8:1],5,7,
{2}1bh,{16}4,5,{8}4,{4}7/2,
{16}6h[16:3],{8},{16}5,{8}6,4/5,{16}3h[16:3],{8},{16}4,{8}3,4/5,
{16}7h[16:3],{8},{16}5,{8}6,5/4,{16}2h[16:3],{8},{16}4,{8}3,5/4,
{16}6h[16:3],{8},{16}5,{8}7,6/4,{16}3h[16:3],{8},{16}4,{8}2,5/3,
6/2h[8:1],7,4/8h[8:1],3,5/2h[8:1],6,3/7h[8:1],2,
1/5,1/5,6/3,6/3,7/4,7/4,8/2,8/2,
{16}7,4,6,5,{8}8h[8:1],{16}2,5,3,4,{8}1h[8:1],{16}7,2,6,3,
5,4,5,4,5,4,5,4,{24}5,6,7,3,2,1,6,7,8,4,3,2,
{8}1/Cf,{4},{8}5/3,7,8-5[8:1]/1-4[8:1],6/3,1b/8b/Cf,
{4},{8}3,{24}1/3,8,7,{4}6,{8}2,{24}2/8,7,6,
{4}5,{8}1,{24}1/7,6,5,{4}4,{8}2,{24}2/8,7,6,
{4}5,{8}7,{24}1/7,2,3,{4}4,{8}1/8,2/7h[4:1],
,5,4/6,5/2,{16}1,7,2,6,3,5,4,8,
{4}1/7<5[8:1],{8}7/4,3>1[8:1],,7/3,{4}8-5[8:1],
{8}3/8,4-1[8:1],,4/8,7,6,4/5,3,
{4}8/2-4[8:1],{8}5/2,6-8[8:1],,2/6,{4}1>4[8:1],
{8}5/1,6,7/3,2,{16}1/5,8,7,6,1/5,8/4,7/3,2/6,
{8}5/1,{24}E3,E2,E1,E8,E7,E6,E5,{12},{16}3x/4x,{8},{16}6x/5x,{8},{16}8x/1x,8x/1x,
{4}2b/7b,{8}8,{24}8/2,3,4,{4}5,{8}7,{24}7/1,2,3,
{4}4,{8}2,{24}8/2,7,6,{4}5,{8}8/1,7/2h[4:1],
,4,5/3,7/4,{32}8,7,6,5,4,3,2,1,{12}8x/4x,7x/3x,6x/2x,
{8}1x/5x,1/5,{32}5,6,7,8,4,3,2,1h[32:5],{8},6,3/7,8/4,
{32}4,3,2,1,5,6,7,8h[32:5],{8},2,5/3,6/4,7/5,8/6,
{16}1,2,3,4,{4}1/5h[4:1],{16}8,7,6,5,{4}8/4h[4:1],
{16}1,2,3,4,{4}1/5h[4:1],{16}7,6,5,4,3,2,1,8,
{4}7/2b>5[8:1],8-4[8:1],{8}2,1<3[4:1],,5,
,8,7,6h[8:3],{4},{16}5pp4>5[8:7],4,3,2,
{8}5/1,{4},,,{16}4pp8[8:3],3,
{2}2h[4:1],{8}2,1/3,7,6/8,
{4}5/4b>8[8:1],7,{8}5,3/4-7-1-5[8:3],{16}2,2,{8}4x/3x,
,2,3-7[8:1],4,5<8[8:1],6,1,{16}2,3,
{8}5b/4qq5<4[4:3],{4},,,{16}7,6,
{2}5-8[8:1],{12}4/6,4/6,4/6,5/3>8[8:1],{6},{32}8bx,
7x,6x,5x,{24},,,,,{6}3h[6:1],5h[6:1],8h[6:1],6h[6:1],
3h[6:1],1h[6:1],5h[6:1],8<5[8:1],,{12}1,1,
7h[12:1],3,6h[12:1],4,{6}5h[12:1],{12}1h[12:1],5,2h[12:1],4,{6}3h[12:1],
{12}6h[12:1],2,7h[12:1],1,{6}8h[12:1],{12}2h[12:1],6,3h[12:1],5,{6}4,
{4}7b/2b,{16}5/6h[4:1],4,3,2,{8}1,{16}8/1h[4:1],7,6,5,{8}4,
{16}4/3h[4:1],5,6,7,{8}8,{16}1/8h[4:1],2,3,4,{8}5,{4}6<1[8:1]/5v2[8:1],
,{16}4/3h[4:1],5,6,7,{8}8,{16}1/8h[4:1],2,3,4,{8}5,
{16}5/6h[4:1],4,3,2,{8}1,{16}8/1h[4:1],7,6,5,{8}4,{32}E2,E3,E4,E5,E6,E7,E8,E1,
{4}Cf/E2,{16}3b,4,2,4,{8}3h[8:1],{16}6b,5,7,5,{8}6h[8:1],
{16}2b,4,3,4,{8}2h[8:1],{16}7b,5,6,5,{8}7h[8:1],{16}3b,4,2,5,
{24}1b,2,3,5,6,7,{16}1b,8,1,8,1,7,3x,5x,2x,8x,4x,6x,
{4}1x-5[2:1],A7/E7/B7,A3/E3,C,
{1}8b<1[4:7],
,{8}7<5[8:1],
7,,4>2[8:1],{4}4,{8}1<5[4:1],1,
,,,{16}1,2,3,4,5,6,7,8,1,2,
3xh[16:1],4xh[16:1],3xh[16:1],4xh[16:1],3xh[16:1],4xh[16:1],3xh[16:1],4xh[16:1],{4}3x<1[1:1],7h[1:1],
{1},{8}2,
2>4[8:1],,5,{4}5<7[8:1],{8}4-1[8:1],4,
{2}8bh,{16}5,4,{8}5,{4}7/2,
{16}2/5,{8},{16}3,{8}4,2/5,{16}1/6,{8},{16}6,{8}5,4/7,
{16}3/8,{8},{16}3,{8}4,1/7,2/6h[8:1],3,8/4h[8:1],7,
{16}6/2,{8},{16}7,{8}8,6/1,{16}5/2,{8},{16}2,{8}1,6/4,
3/7h[8:1],2,5/1h[8:1],6,4/7h[8:1],3,6/2h[8:1],7,
4/8,4/8,3/6,3/6,2/5,2/5,1/7,1/7,
{16}2,5,3,4,{8}1h[8:1],{16}7,4,6,5,{8}8h[8:1],{16}3,7,2,6,
1,5,1,5,1,5,1,5,{24}1,2,3,7,6,5,2,3,4,8,7,6,
{8}5/Cf,{4},{8}6/4,2,8-5[8:1]/1-4[8:1],6/3,1b/8b/Cf,
{4},{8}6,{24}6/8,1,2,{4}3,{8}7/1,{24}7/1,2,3,
{4}4,{8}2/8,{24}2/8,3,4,{4}5,{8}1/7,{24}7/1,2,3,
{4}4,{8}2/8,{24}8/2,7,6,{8}5<3[8:3],{16}3x/6x,7x/4x,{4}5x/8xh[4:1],
,{16}6,5,{8}4/8h[4:1],,4,7/2-5[8:1],1/8,
{4}2/6,{16}3,4,{8}5/1h[4:1],,5,3/7,8/1,
2/7,5/3h[4:1],,7,8/1,1-5[8:1]/8-4[8:1],6/3,1b/8b,
,{16}2,1,3,8,{8}4,{16}7,8,6>3[4:1],1,{8}5,2h[4:1],
,,,3/5,7,8-5[8:1]/1-4[8:1],6/3,8b/1b/Cf,
{4},{8}3,{24}1/3,8,7,{4}6,{8}2/8,{24}2/8,7,6,
{4}5,{8}1/7,{24}7/1,6,5,{4}4,{8}8/2,{24}2/8,3,4,
{4}5,{8}1/7,{24}7/1,6,5,{8}4>5[8:5],2/6,{4}4b/8bh[2:1],
{2},{16}2,1,3,8,4,7,5,6,
{4}1b,{16}4/5,3,{8}2,7/1,6,4/3,8/1-4[8:1]*-6[8:1],
,1,,5-1[8:1]*-8[8:1],,5,,2/7,
{16}3,4,3,4,{4}6x/1x,{16}7,8,7,8,{4}5x/2x,
{8}7/3,3/7,5/1,5/1,{16}8,4,8,4,6,2,6,2,
{4}3-8[8:1]/7-4[8:1],3b/7b/B7/B6/B8/B1/B2/B3/B5/B4/Cf,,{8}1,{24}1/5,2/6,3/7,
{4}4/8h[4:1],{8}2,{24}2/6,3/7,4/8,{4}5/1h[4:1],{8}3,{24}3/7,2/6,1/5,
{4}4/8h[4:1],{8}6,{24}2/6,3/7,4/8,{8}1/5,{16}5x/1x,4x/8x,{4}7xh[4:1]/3x>4[8:3],
{2},{16}7,8,6,1,5,2,4,3,
{8}8b,{24}6,5,4,{8}3,1h[4:1],,{24}4<7[8:1],3,4,{8}2,8h[8:1],
,{24}5>2[8:1],6,5,{8}7,1h[8:1],,5,{4}3/7,
{16}1/5-1[8:1],2,3,4,{4}5/8b,{16}2/6-2[8:1],3,4,5,{4}6/8b,
{16}1/5-1[8:1],2,3,4,{4}5/8b,{16}5,4,3,2,5/1-5[8:1],8/4,7/3,6/2,
{4}5b/1b,{8}8,{24}8/4,7/3,6/2,{4}5/1h[4:1],{8}7,{24}7/3,6/2,5/1,
{4}4/8h[4:1],{8}6,{24}2/6,7/3,8/4,{4}5/1h[4:1],{8}3,{24}7/3,6/2,5/1,
{4}4/8h[4:1],{8}5,{24}1/5,2/6,3/7,{8}8/4,6/2,{4}4b/8bh[4:1],
{16}1,2,3,4,2,3,4,5,3,4,5,6,8,1,8,1,
{4}7/2-5[8:1],2/8-4[8:1],8/3-7[8:1],3/6-1[8:1],
6/2-5[8:1],8/2,{16}7,3,5,1,8z4[8:1],4,6,2,
{4}8b,{16}8,1,2,3,{8}5/4,{16}5/4,6,7,8,{8}2/1,
{16}1/2,8,7,6,{8}5/4,{16}4/5,3,2,1,{8}8/7,{4}8>3[8:1]/7v4[8:1],
,{16}1/2,8,7,6,{8}5/4,{16}5/4,3,2,1,{8}8/7,
{16}7/8,1,2,3,{8}4/5,{16}5/4,6,7,8,{8}1/2,{32}3x,2x,1x,8x,7x,6x,5x,4x,
{4}3x/Cf,{16}6b,5,6,7,{8}6h[8:1],{16}3b,4,3,2,{8}3h[8:1],
{16}7b,8,7,6,{8}7h[8:1],{16}2b,1,2,3,{8}2h[8:1],{16}6b,5,7,4,
{24}8b,7,6,4,3,2,{16}8b,1,8,1,6,5,7b,2,1,3,7,8,
6b,3,4,2,6,3,7b,5,7,2,4,2,{8}8bz4[8:1]/1bs5[8:1],8b/1b,
E
