&title=Absolute Queen
&artist=Laur
&first=0.17
&des=NaOH
&clock_count=4
&lv_5=14
&inote_5=(220){4},,,,,,,,(440),,,,,,(220),,
1,2,3h[4:4],,,4,{8}5h[8:3],,,6h[8:3],,,7-5-8-2[4:5],,B3,,,,E5,,,,A4,,,,
{4}5,4,3h[4:4],,,8,{8}7h[8:3],,,4h[8:3],,,1-7-2-6[4:5],,A4,,,,A3,,,,A2,,,,
{4}8,7,6h[4:4],,,4,{8}3h[8:3],,,5h[8:3],,,1-3^4-6[4:5],,A7,,,,A8,,,,A1,,,,
{4}8,17,26,35,4,7-3[4:2]*-3[4:2],,,,,2bh[4:14]/Chf[4:6],,,,,,,,
{24}E1,E8/B8,B7/E7/B6,E6/B5,E5f,,,,,,,,,,,,,,,,,,,,
{24}E1,E8/B8,B7/E7/B6,E6/B5,E5f,,,,,,,,,,,,,,,,,,,,
{8}2x/4x,,3,5,4,6,54,,5x/7x,,6,4,5,3,24,,
3x/5x,,4,6,3,7,28,,1x/7x,,2,6,3,5,45,,
7-3[8:1],,4,4h[4:1],,E2,E1,,2-6[8:1],,5,5h[4:1],,E1,E2,,
8-5[8:1],,2,2h[4:1],,C,B8/B4,,
{16}E2,E3,E4,E5,A8,A7,A6,A5,1x,2,3,4,1x,8,7,6,
{8}1x,1,3,3,4,4,5,5,4x,4,7,7,3,3,6,6,
{16}4x,5,4,5,3x,6,3x,6,{32}B1,B2,B3,B4,B5,B6,B7,B8,Cf,,,,,,,,
{8}1x,6xh[16:1],1x,7xh[16:1],1-5b[8:1],8,{16}1b,Cf,,,
{16}
6xh[16:3],,,4x,6,,4,,7h[16:3],,,5,7,,5,,
7>3[4:1],,,,3>7b[4:1],,,,5,,4,,3,,2,,
8xh[16:3],,,1,8,,1,,7h[16:3],,,1,7,,1,,
7<3[4:1],,,,3<7b[4:1],,,,8,,1,,2,,3,,
5,4,5,4,5<8[4:1],,,,,,1,,2,,3,,4,5,4,5,4>1[4:1],,,,,,
8,,7,,6,,5b-1[8:1],,,,35,,2b>5[8:1],,,,8b-4[8:1]/2b,,,,
3b>8[8:1]/8b,,,,6,,5,,4bh[4:1],,1,2,3,4,5,6,7,8,
1b-3[12:1]/5b,,,,14,,,,4-8[8:1]/1,,,,14,,,,
1pp4[4:2],,,,15,,,,6,,,,7,,,,
6-4[12:1]/3,,,,36,,2-5[8:1],,,,27,,8<3[8:2],,,,8/C,,,,,,,,1,,2,,3,,4,,
5h[16:1]/6h[16:1],,5h[16:1]/6h[16:1],,7-2[8:1]/6,,,,,,
4,,3,,2,,1h[16:1]/2h[16:1],,1h[16:1]/2h[16:1],,8-5[8:1]/3,,,,,,
4,,3,,2,,1,,1,,8,,8,,2,,2,,7,,7,,4,5,4,5,3,6,3,6,
{32}2,3,4,5,6,7,8,1,{16}7xp4[4:2]/2x,,,,
2b/7b,,,,,,,,1,,,3h[8:1]/2h[8:1],,,4h[8:1]/3h[8:1],,,5h[8:1]/4h[8:1],,,
5h[8:1]/6h[8:1],,,6h[8:1]/7h[8:1],,,7h[8:1]/8h[8:1],,,8h[8:1]/1h[8:1],,,
8z4[4:1],,,,,,,,3,,,,1h[8:1]/7h[8:1],,,3h[8:1]/5h[8:1],,,2h[8:1]/8h[8:1],,,
4h[8:1]/6h[8:1],,,5xw1[8:1],,,,,,,,
6,,5,,4>1[8:1],,5,,6,,,,7h[4:1],,{24}1,2,3,4,5,6,7,8,1,2,3,4,5,6,7,
8b-4[8:1]/4b-8[8:1],,,,,,,,,,,,
{16}
6h[4:1],,5,,4,,3,,6h[4:1],,5,,4,,3,,
5h[4:1],,4,,3,,2,,4h[4:1],,3,,2,,1,,
{4}A8f/D8,,,,B6/E6,,,,B3/E4,,,,B2/E2,,,,
E1,E8,E7,E6,E1,E2,E3,E4,A7,E6,B8,E5,B1,E4,A2,,
{8}3,4,3,5,4,5,2,4,2,6,4,6,E2,E8,E3,E7,
3,4,3,5,4,5,2,4,2,6,4,6,E2,E8,E3,E7,
3,4,2,6,5,7,3,5,1,7,5,3,E2,E8,E4,E6,
3,4,2,6,5,7,3,5,Chf[4:2],,,,,,7x,6x,
{16}5x,,5,,3,,3,,4h[16:3],,,2,4,,2,,
1x,,1,,5,,5,,2h[16:3],,,6,2,,6,,
4x/5x,,,45,,,45,,3x/6x,,,36,,,36,,7xpp4b[4:2]/2x,,,,,,,,C,,,,3,,2,,
1-3b[12:1]/8,,,,B6/B7,,,,5,,,46,,,37,,8-6b[12:1]/2,,,,B2/B3,,,,4,,,35,,,26,,
1b/8,,,7b/4,,,2b/5,,8b/1,,,4b/6,,,5b/1,,
7bp4>5b[4:9]/Cf,,,,,,,,,,,,,,,,,,,,,,,,,,,,,,,,,,,,,,,,,,,,,,,,
25,,3,4,3,,12,,,78,,,65,,,34,,,18,,,45,,,
7xv4^1[4:3]`2xv5^8b[4:3],,,,,,,,,,,,,,,,,,,,,,,,
4h[4:3]/3,,,,,,,,8h[4:1],,,,,,,,
8x>3[8:1],,,4,8,,6,,7<4[8:1],,,4-8b[8:1],7,,2,,
1,2,3,4,15,8,7,6,25,3,4,5,8,7,6,5,
1>4[8:1],,,4-8b[8:1],1,,6,,7V53[8:1],,,3v6b[8:1],7,,1,,
8,1,2,3,48,7,6,5,34,2,1,8,4,5,6,7,
2>5[8:1],,,5p1b[8:1],2,,7,,8<5[8:1],,,5q1b[8:1],8,,3,,
2,3,4,5,1,8,7,6,45,3,2,1,5,6,7,8,
3,7,3,6,4>1[8:1],5,4,,7,,,,{24}8,7,6,45,3,2,
{16}1bh[4:1],,,,8h[16:1],,8h[16:1],,1h[16:1]/7h[16:1],,2h[16:1]/6h[16:1],,3b/5b,,,,
7b/B2/E3/B3,,,,1b/E6/B6/B5,,,,2b/3b,,,6b/7b,,,1b/8b,,,,4b/5b,,3b/6b,,,,
{24}1b/5b,,,2,3,4,5bx/1bx,,,8,7,6,
{16}5b-1[8:1]/2b-4[8:1],,,,2-7[8:1]/5-7[8:1],,,,2-5[8:1]*-6[8:1],,,,
2-8[8:1],,,,2-4[8:1],,7,,2-5[8:1],,6,,2,,{32}8x,7x,6x,,2,,,,7x,6x,5x,,
{16}2-5[8:1],,,5-1b[8:1],2,,6,,6<1[8:1],,,5,6,,4,,
3x/7x,,26,,1b/5b,,,,1h[16:1]/7h[16:1],,2h[16:1]/6h[16:1],,3,5,3,5,
4,,4,,35,,35,,26,,26,,7,8,7,,1b,8,1,8,1,8,1,8,
2bh[8:1],,{48}8bx,7,6,5,,,{16}3bh[8:1],,{48}8bx,7,6,5,,,
{8}4x-2[8:1],,6-4[8:1],,8-6[8:1],,2-8[8:1],,
5-2[8:1],,7-4[8:1],,1-6[8:1],,3-8[8:1],,
7^4[8:1],,2^7[8:1],,5>2[8:1],,8<5[8:1],,
4>1[8:1],,8,7p6b[8:3],,E1,C,,
{8}4xqq5b[4:2],,6-1[8:1],,6b,,8xqq1b[4:2],,
8,,2-5[8:1],,2b,,4xq5b[8:3],,
4,,7^2[8:1],,7b,,C,,
{16}7x/3x,,3,2,16,,3,4,58,1,2,3,48,15,26,37,
8bV62b[4:4]/4bV62b[4:4],,,,,,,,,,,,,,,,,,,,,,,,,,,,,,,,
{6}E4,E6,E3,E7,E2,E8,
{24}3x,4,5,6,7,8,1,2,3,4x/8x,7,6,5,4,3,2,1,8,7x/1x,26,35,4b,,,
{4},,,,Cf/E1/E8/B8/B1/E2/B7/B2/E7/E3/B6/B3/E6/B5/B4/E4/E5,,,,
