&title=Apollo
&artist=TJ.Hangneil
&first=0
&des=SepTunE
&freemsg=
&wholebpm=274
&first_1=
&first_2=
&first_3=
&first_4=
&first_5=
&amsg_first=
&tap_ofs=
&hold_ofs=
&slide_ofs=
&break_ofs=
&amsg_content=
&lv_5=13+
&inote_1=
&inote_2=
&inote_3=
&inote_4=
&inote_5=(274)
{1},
{1}
6bV85[1:3]/4bV25[1:3],,,,
6bV41[1:3]/4bV61[1:3],,,,
{16}
6,,5,,3,,4,,
7,,8,,2,,1,,
6h[8:3],,,,1,2,3,,
7h[8:3],,,,4,3,2,,
5,,5,,4,,6,,
3,,7,,2,,8,,
2,1,2,1,2,,8,,
1,,7,,2,,6,,
3,,4,,6,,5,,
2,,1,,7,,8,,
3h[8:3],,,,8,7,6,,
2h[8:3],,,,5,6,7,,
4v3[8:1],,,,5,,5v6[4:1],,
,,2,,2,,,,
7/8,,7,,1v2[8:1],,,,
8v7[8:1],,,,,,,,
3,,4,,6,,5,,
2,,1,,7,,8,,
3h[8:3],,,,7,6,5,,
2h[8:3],,,,6,7,8,,
3,,3,,4,,2,,
5,,1,,6,,8,,
7,8,7,8,7,,1,,
8,,2,,7,,3,,
6,,5,,3,,4,,
7,,8,,2,,1,,
6h[8:3],,,,2,3,4,,
7h[8:3],,,,3,2,1,,
5v6[8:1],,,,4,,4v3[4:1],,
,,7,,7,,,,
1,,1,,1,,1,,
1,,1,,1,,1,,
{8}
6,5,4,6,5,4,3,4,
5,3,4,5,2,1,8,7,
1,4,2,5,3,6,1,4,
2,5,3,6,1,4,2,5,
3,4,5,3,4,5,6,5,
4,6,5,4,7,8,1,2,
7/3v2[8:1],,5,5v6[4:1],,1,1,,
7/8,7,1v2[8:1],,7v6[8:1],,,,
3h[4:1],1,8,2h[4:1],1,8,7h[4:1],8,
1,6h[4:1],8,1,7,8,1,2,
8,5,7,4,6,3,8,5,
7,4,6,3,8,5,7,4,
6h[4:1],8,1,7h[4:1],8,1,2h[4:1],1,
8,3h[4:1],1,8,2,1,8,7,
2/6v7[8:1],,2,2v3[4:1],,6,6,,
7,7,8,8,1,1,2,2,
{16}
3/8h[4:1],,,,1,,2/7h[4:1],,
,,8,,1/6h[8:9],,,,
5,,5,,5,,5,,
5,,5,,5,,5,,
7/4h[4:1],,,,5,,6/3h[4:1],,
,,4,,5/2h[8:9],,,,
1,,1,,1,,1,,
1,,1,,1,,1,,
3/8h[4:1],,,,1,,2/7h[4:1],,
,,8,,1/6h[8:9],,,,
5,,5,,5,,5,,
5,,5,,5,,5,,
4,3,2,1,5,6,7,8,
1,2,3,4,3/5,2/6,1/7,,
5,6,7,8,4,3,2,1,
8,7,6,5,6/4,7/3,8/2,,
7/3h[4:1],,,,4,,2/5h[4:1],,
,,4,,3/6h[8:9],,,,
7,,7,,7,,7,,
7,,7,,7,,7,,
5/8h[4:1],,,,7,,6/1h[4:1],,
,,8,,7/2h[8:9],,,,
3,,3,,3,,3,,
3,,3,,3,,3,,
2,,2,,1,,1,,8,,8,,7,,7,,
6,,6,,5,,5,,4,,4,,3,,3,,
2,,2,,7,,7,,1,,1,,8,,8,,
1/8,,1/8,,1/8,,1/8,,1/8,,1/8,,1/8,,1/8,,
(210)
{4}
1h[2:7]/8,,,,,,,
,,,,,,,
{16}
7,,4,,3,,6,5,6,5,6,,4,,
3,,6,5,6,5,6,,1,,2,,8,,
7,,4,,3,,6,5,6,5,6,,4,,
3,,6,5,6,5,6,,1,,2,,8,,
4/7,,6,,5,,6,,3,4,3,,7,,
6,,5,,6,,3,4,3,,8,,1,,
5/2,,3,,4,,3,,6,5,6,,2,,
3,,4,,3,,6,5,6,,1,,8,,
4/7,,6,,5,,6,,3,4,3,,7,,
6,,5,,6,,3,4,3,,8,,1,,
5/2,,3,,4,,3,,6,5,6,,2,,
3,,4,,3,,6,5,6,,2,1,2,1,
(220)
{16}
8/3,,2,,1,,2,,6,5,6,,3/8,,
2,,1,,2,,6,5,6,,4,,5,,
1/6,,7,,8,,7,,3,4,3,,1/6,,
7,,8,,7,,3,4,3,,5,,4,,
(230)
{16}
8/3,,2,,1,,2,,6,5,6,,2/7,,
1,,8,,1,,6,5,6,,4,,5,,
(240)
{16}
1/6,,7,,8,,7,,2/6,3/5,4,,2/7,,
8,,1,,8,,2/7,3/6,4/5,,2/6,,7,,
(250)
{16}
1,8,1,8,1,8,1,8,1,8,1,8,1,8,
1,8,1,8,1,8,1,8,1,8,1,8,1,8,
1,8,2,7,1,8,2,7,1,8,2,7,1,8,
2,7,1,8,2,7,1,8,2,7,1-5[8:1]*s5[8:15],8,2,7,
(260)
{4}
,,,,,,,,
(274)
{8}
7h[4:1],,5,6,4h[4:1],,6,5,
7h[4:1],,5,6,4h[4:1],,6,5,
7h[4:1],,5,6,8b,,7,,
1b,,6,,2b,,5,,
3h[4:1],,5,4,6h[4:1],,3,4,
2h[4:1],,6,5,7h[4:1],,1,8,
2qq5[1:1]/7pp4[1:1],,,,,,,,
,,,,1/8,,,,
2/7,,3,4-6[8:1],,4,3,,
2/7,,6,5-3[8:1],,5,6,,
1/8,,3,4<7[8:1],,4,2,,
1/8,,6,5>2[8:1],,5,7,,
7,7,7,7,2,2,2,2,
1/8,1/8,1/8,1/8,1/8,1/8,1qq6[4:3]*pp6[4:3]/8,1/8,
{12}
,,,,,,,,,,,,
7,6,5,4,3,2,7,6,5,4,3,2,
{8}
1b/8bV61[8:3],,,1<4[4:1],,,2,,
1V38[8:3],,,8>5[4:1],,,7,,
8h[64:1],4,7h[64:1]/3h[4:1],,6h[64:1],2h[4:1],5h[64:1],,
4h[64:1]/1h[4:1],,5h[64:1],2h[4:1],6h[64:1],,7h[64:1]/3,,
4/5V74[8:3],,4,4q8[4:1],,3,3,,
4V25[8:3],,5,5p1[4:1],,6,6,,
6V85[8:3],,5,5v2[4:1],,4,4,,
3V14[8:3],,4,4v7[4:1],,5,5,,
5V74[8:3],,,4<1[4:1],,,3,,
4V25[8:3],,,5>8[4:1],,,6,,
5h[64:1],1,6h[64:1]/2h[4:1],,7h[64:1],3h[4:1],8h[64:1],,
1h[64:1]/4h[4:1],,8h[64:1],3h[4:1],7h[64:1],,6h[64:1]/2>5[16:3],,
1pp8[2:1],,8,8,,7,7<4[16:3],,
8qq1[2:1],,1,1,,2,2,,
{16}
2,3,4,5,7,6,5,4,
3,2,1,8,7/2,6/3,5/4,,
7,6,5,4,2,3,4,5,
6,7,8,1,2/7,3/6,4/5,,
{8}
2/6,5,4,7/3,4,5,2/6,5h[1:1],
4,4,4,4,4,4,4,4,
8,1,6,4,5,3,8,1,
6,4,5,3,8,1,7,2,
8/3,4,5,1/6,5,4,8/3,4h[1:1],
5,5,5,5,5,5,5,5,
4,6,3,5,2,8,4,6,
3,5,2,8,1,7,4,6,
4/5,3,2,1/8,7,6,4/5,3h[1:1],
7,7,7,7,7,7,7,7,
1,8,3,5,4,6,1,8,
3,5,4,6,1,8,3,6,
5/4,6,7,8/1,2,3,5/4,6h[1:1],
2,2,2,2,2,2,2,2,
5,3,6,4,7,1,5,3,
6,4,7,1,8,2,5,3,
{16}
1<5[8:3],,,,,,5p1[8:3],,,,,,1p5[8:3],,,,,,5>1[8:3],,,,,,1<5[4:1],,,,5,4,3,2,1h[4:3],,,,,,,,,,,,
{24}
2,,3,,4,,5,,6,,7,,1/8,,,,,,7,,,2,,,6,,,3,,,
4/5,,6,,7,,8,,1,,2,,
3/6,,7,,8,,1,,2,,3,,
4/5,,3,,2,,1,,8,,7,,
6/3,,2,,1,,8,,7,,6,,
{16}
1h[8:3]/5,,,,,,3h[16:11],,
,,,,7h[16:5],,,,
,,4/8,5/1,6/2,7/3,8/4,1/5,
2/6,,,,4/8,,,,
8,,4,,4,,7,,
3,,3,,6,,2,,
2,,5,,1,,1,,
4-8[8:1],8,4,8,4,,,,
1,,5,,5,,2,,
6,,6,,3,,7,,
7,,4,,8,,8,,
5-1[8:1],1,5,1,5,,,,
8,,4,,4,,7,,
3,,3,,6,,2,,
2,,5,,1,,1,,
4,8,4,8,4,8,4,,
1,,5,,5,,2,,
6,,6,,3,,7,,
7,,4,,8,,8,,
5,6,7,8,1,2,3,4,
(200)
{4}
,,,
(240)
{16}
8,,1,,7,,2h[4:1],,8,7,6,,4,,
5,,3,,6h[4:1],,4,3,2,,5,,1,,
7,,2,,8,,1h[4:1],,7,6,5,,3,,
6,,4,,5h[4:1],,3,2,1,,7,,3,,
(250)
{16}
7,,8,,6,,1h[4:1],,7,6,5,,3,,
4,,2,,5h[4:1],,3,2,1,,4,,8,,
6,,1,,7,,8h[4:1],,6,5,4,,2,,
5,,3,,4h[4:1],,2,1,8,,6,,3,,
(270)
{8}
7h[8:1],5h[8:1],6h[8:1],2h[8:1],4h[8:1],3h[8:1],8h[8:1],6h[8:1],7h[8:1],1h[8:1],3h[8:1],2,4/8,,
(285)
{8}
1h[8:1],3h[8:1],2h[8:1],8h[8:1],6h[8:1],7h[8:1],2h[8:1],4h[8:1],3h[8:1],7h[8:1],5h[8:1],6,4/8,,
(300)
{8}
7h[8:1],6h[8:1],5h[8:1],4h[8:1],3h[8:1],2h[8:1],7h[8:1],6h[8:1],5h[8:1],4h[8:1],3h[8:1],2,1/8,,
(315)
{12}
3/7,6,5,4/1,2,3,4/8,7,6,
{16}
2/5,3,4,5,6,7,8,1,2/5,4,3,2,1-5[8:1],8,7,6,
(339)
{4}
5b/1b<1[2:17]*>1[2:17],,,,,,,,,,,,,,,,,,,,,,,,,,,,,,,,,,,,,,,,,,
E
