&title=MakeFlowerCrown()
&artist=削除
&first=0.08
&des=「桂冠」
&lv_2=5
&lv_5=12
&inote_2=
&inote_4=
&inote_5=(75)
{1},,
{4}1pp1[4:1],5pp5[4:1],5<4[4:3],{32},,,,,,,1b<6[32:9],{4},,,,
{1}3w7[2:1],8>6[4:3],7w3[2:1],
{4}4<2[4:3],4q4[8:3]
,,,
{1}4w8[2:1],7q1[4:3],
{4}5V71[4:1],1V35[4:1],5w1[8:3],,,
4pp6[16:3]*qq2[16:3],4<4[2:1],,,5qq3[16:3]*pp7[16:3],5>5[2:1],,,
4pp5[16:3]*qq3[16:3],4-8[6:1],,5pp4[4:1],1pp8[4:1],1>6[4:1],,7p3[6:1],,
{8}5pp7[8:1]*qq3[8:1],7p1[4:1]/3q1[4:1],,,,,
{16}3pp5[8:1]/5qq3[8:1],,,3<7[4:1]/5>1[4:1],{8},,,,8w4[6:1],,,,
{4}4<8[4:1],,2>6[4:1],,
{8}7q5[6:1],3q1[6:1],,,4w8[6:1],,
{4}4pp5[16:3]*qq3[16:3],4>5[8:3]*<3[8:3],,,5qq4[16:3]*pp6[16:3],5<4[8:3]*>6[8:3],,,
4qq4[4:1]/8qq8[4:1],4pp1[8:3],,8q2[4:1],2<2[8:3],5<8[8:1],,
{8}3>8[8:1],,5<3[4:1],,8-4[8:1],4pp6[4:1]*qq2[4:1],,,,,
{16}1p5[8:1]*q5[8:1],,,5qq4[4:1]*pp6[4:1],{4},,5p4[16:5],,2>7[4:1],,
{8}8-4[8:1],,,8p2[8:3]*q6[8:3],
(37.5)
{1}2p4[2:1]/6q4[2:1],
(75)
{8}1>7[2:1],4p4[8:3],,,,,,,8<2[2:1],5q5[8:3],,,,,,,
4<7[6:1],1>4[6:1],,,8-4[6:1],,,,5<8[4:1],,5>2[6:1],,5w1[6:1],,,,
{2}1>5[4:1],6q4[4:1],5<1[4:1],
(37.5)
2p8[2:1],
&inote_6=
