&title=les plumes
&artist=TRINITYAiLE
&first=0
&des=YU SUZUMURA
&cabinet=SD
&lv_5=13+
&inote_5=(160)
{1},
{4}1pp6[4:3],,,,
{8}8,,7<1[2:1],7h[16:6],,,,,
{4}4pp2[4:3],,,,
{8}3,,4>5[2:1],4h[16:6],,,,,
{8}3-7[8:1],,6,,5-1[8:1],,4,,2-6[8:1],,8,,7-4[8:1],,1,,3,4,2/5,6,
{16}8,7,8,7,1,7,1,7,
{32}1,2,3,4,5,6,7,8,
{8}1/5,,7/3,2/6,1w5[8:1]/5,,
{4}1b>8[2:3],,,,,,,,
2pp5[4:6],,,,,,,,
4<2[2:3]/3h[4:4],,,,,,,,
4-1[8:1],,4-8[8:1]*-7[8:1],,
{16}1,,2,,35,,6,4,5,,3,,2b/4b,,,,
{16}3/4,,,,
3,,2,4,,6,5,,7/4-8[8:1],,3,,2,,,,
6,,7,5,,3,4,,2/5-1[8:1],,6,,7,,,,
3,,2,4,,6,5,,8-4[8:1]/4,,3,,2,,,,
6,,7,5,,3,4,,2^5[8:1]/5^8[8:1],,,,2/5,,,,
4,,3,5,,6,4,,7/3-7[8:1],,6,,5,,,,
5,,6,4,,3,5,,2/6-2[8:1],,3,,4,,,,
4,,3,5,,6,4,,7/3-7[8:1],,6,,5-8[8:1],,,,4-1[8:1],,,,7,,6,,8w4[8:1]/5,,,,
{8}8qq2[4:2],,,,1,,3pp6[4:2],3,,8,8,,7^2[8:2],,5,,
4qq5[2:1],,,,8,,7,,6^3[4:1],,1,2,2,,1/8,,
{8}2^7[8:1],,7,,6^3[8:1],,3,,
{8}1-4[8:1],,4,,8-5[8:1],,5,,
{16}4/3,,2,,5/6,,7,,3/4,,1,,5/6,,8,,
{16}2/4,,3/5,,4/6,,7,5,6,,3,,2-5[8:1]/6-1[8:1],,1/5,,
{16}2b/6b,,,,3/7,,6,,52,,1,,8^3[8:1]/7^4[8:1],,16,,8b/7b,,,,
{16}2/5,,3,,6/4,,7,1,8,,2,,
{16}3/4-1[8:1],,,,4/5-8[8:1],,,,7-3[8:1]/5,,,,1-6[8:1]*-4[8:1],,,,1,,,,3/7,,,,
{16}2/4,,,3,5,,
6,,7/5,,,8,8,,1,,
{24}2h[8:1],,,3,4,5,6,,,
{16}2,,1/3,,,8,8,,7,,
{24}6h[8:1],,,5,4,3,2,,,
{8}4,5/3,3,3/7,3,3/1,3,3/2,3,
{8}35,46,75,18,
{16}2,4,3,,7-5[8:1]/5-1[8:1],,4,,7b/5b,,,,
6/2,,3,,4/7,,8,,1^6[8:1]/5^2[8:1],,8/4,,1b/5b,,,,
{16}7/1,,6,,2/5,,1,7,8,,6,,
{8}5/4-1[8:1],,5-8[8:1]/4,,5/1-3[8:1]*-4[8:1],,1-6[8:1]*-7[8:1],,1,,37,,
{16}2/4,,,3,5,,
6,,7/5,,,8,8,,1,,
{24}2h[8:1],,,3,4,5,6,,,
{16}2,,1/3,,,8,8,,7,,
{24}6h[8:1],,,5,4,3,2,,,
{8}4,5/3,6,5/7,1,
{24}2/8,3,4,5,6,7,8/1,,,27,,,
{16}45,,3,4,2,,1,,
{16}87,,
{24}6,5,6,5,,,5/4,,,
{1}4b<3[4:6]/3b,,
{16}
2h[16:3],,,
4h[16:5],,,2,,2h[16:3],,,
1h[16:5],,,2,,2h[16:3],,,
8h[16:5],,,1,,1h[16:4],,,,7,6,5,4,
3/2h[16:3],,,
1h[16:5],,,2,,2h[16:3],,,
8h[16:5],,,1,,1h[16:3],,,
7h[16:5],,,8,,8h[16:4],,,,7,6,5,4,
3/2h[16:3],,,
1h[16:5],,,3,,3h[16:3],,,
8h[16:5],,,4,,5^2[8:1],,,,8^5[8:1],,,,1w5[8:1],,,,1,,,,
{16}
7h[16:3],,,
8h[16:5],,,7,,7h[16:3],,,
1h[16:5],,,8,,8h[16:3],,,
2h[16:5],,,1,,1h[16:4],,,,2,3,4,5,
6/7h[16:3],,,
8h[16:5],,,6,,6h[16:3],,,
1h[16:5],,,5,,4^7[8:1],,,,1^4[8:1],,,,8w4[8:1],,,,8,,,,
{16}
2/6qq3[2:1],,,,2,,,,2,,,,2,,,,
4/2qq7[2:1],,,,4,,,,5,,,,6,,,,
6h[4:1]/5-1[8:1],,,,5,,,,4-8[8:1]/3h[4:1],,,,4,,,,
1w5[8:1],,,,1,,,,37,,,,
{16}2h[8:1],,3,,4,,5,,6h[8:1],,5,4,3,2,1,,
{16}7h[4:1],,6,,5,,4,,3h[8:1],,4,5,6,7,8,,
3,,2,,
{16}1,8,1,8,1,8,1,8,
{32}1,2,3,4,5,6,7,8,
{32}1w5[8:1],2,3,4,5,6,7,8,
{1}1,3>6[4:3],3>6[4:3]*>6[4:3],
{4}4-1[4:1],,5-8[4:1],,1,,
{16}2h[16:3],,,4,,,3,,3,,,6,,,5,,
{16}4qq5[2:1],,,,,,,,5,,,6,,,7,,
{16}8qq8[4:1],,,,,,,,
{16}3h[4:1],,,,4h[4:1],,,,5h[4:1],,,,6h[4:1],,,,1b,,7,7,8,,6,,
{32}1,2,3,4,5,6,7,8,
{16}5-8[8:1]/1-4[8:1],,62,,1b/5b,,,,
3/7,,6,,52,,1,,8^3[8:1]/4^7[8:1],,15,,8b/4b,,,,
{16}2/8,,3,,7/4,,8,2,1,,3,,
{8}5-1[8:1]/4-2[8:1],,5-7[8:1]/4-8[8:1],,5-2[8:1]/4-2[8:1],,5<4[4:1]/4q5[4:1],,5/4,,,,
{16}2/4,,,3,5,,
6,,7/5,,,8,8,,1,,
{24}2h[8:1],,,3,4,5,6,,,
{16}2,,1/3,,,8,8,,7,,
{24}6h[8:1],,,5,4,3,2,,,
{8}4,5/3,6,5/7,1,
{24}2/8,3,4,5,6,7,8/1,,,27,,,
{16}45,,3,4,2,,1,,
{16}8/7,,
{24}6,5,6,5,,,5/4,,,
{32}4b/3b,,,,1,,,,6/5,,,,8,,,,2/4,,,,3,,6,,,,5,,7,,,,
{32}1b/8b,,,,2,,,,3/4,,,,6,,,,7/5,,,,8,,3,,,,1,,2,,,,
{32}4b/3b,,,,1,,,,6/5,,,,8,,,,2/4,,,,3,,6,,,,5,,7,,,,
{16}1,2,3,4,6,7,8,1,5w1[8:1],,37,,5b,,,,
{32}4b/6b,,,,8,,,,3/4,,,,1,,,,7/5,,,,6,,3,,,,4,,2,,,,
{32}8b/1b,,,,7,,,,6/5,,,,3,,,,2/4,,,,1,,6,,,,8,,7,,,,
{32}5b/6b,,,,8,,,,3/4,,,,1,,,,7/5,,,,6,,3,,,,4,,2,,,,
{16}5,6,7,8,2,3,4,5,
{32}8w4[8:1],1,2,3,4,5,6,7,8,,,,,,,,
{1}2bV85[4:11]*-5[4:11],,,
E
