&title=チラリ、名残り
&artist=昼夜自平衡 feat.本墨置子
&first=0
&des=Holinality
&clock_count=4
&lv_5=13
&inote_5=(153)
{1},
{72},
{16}
,,,,,,,,
,,,,,,,,
{16}
3hx[8:9]/E1,,,,,,B7,,
,,,,C,,,,
,,E6,,,,,,
4>1[8:1],,,,4/6,,,,
5hx[8:9]/E1,,,,,,B2,,
,,,,C,,,,
,,E4,,,,,,
5<8[8:1],,,,5/3,,,,
4h[8:3],,,,6,,6h[8:3],,
,,3,,3h[8:3],,,,
5,,5h[8:3],,,,1,,
1x-5[8:1],,,,1,,,,
6h[8:3],,,,4,,4h[8:3],,
,,7,,7h[8:3],,,,
1,,1h[8:2],,,,,,
18,,27,,36,,36,,
{16}
3bx/6bx-8[8:1],,2-4[8:1],,6,,2,,
,,7,,6,,5h[8:2]/3,,
,,2,,3,,4h[8:3]/6,,
6h[8:2],,,,,,,,
3-1[8:1],,7-5[8:1],,3,,7,,
,,2,,3,,4h[8:2]/6,,
,,7,,6,,5h[8:3]/3,,
3h[8:2],,,,,,,,
64,,7,,35,,2>4[8:1],,
,,2/6,,7,,8<6[8:1],,
,,8/4,,3,,2h[8:3],,
,,8,,7,,6,,
35,,2,,64,,7<5[8:1],,
,,7/3,,2,,1q3[8:3],,
,,1/5,,6,,7h[8:3],,
,,,,,,,,
{16}
3x/5x,,4,,64,,5h[8:3],,
,,,,2-7[8:1],,2,,
,,6-3[8:1],,6,,,,
8>3[8:1],,,,8/6,,,,
6x/4x,,5,,35,,4h[8:3],,
,,,,6,,7<4[8:1],,
,,7/1q3[8:3],,,,1,,
7,,6,,5,,,,
3x/5x,,4,,64,,5h[8:3],,
,,,,2<7[8:1],,2,,
,,6>3[8:1],,6,,,,
1-5[8:1],,,,1,,,,
6h[8:3],,,1,,,3,,
,,4,,36,,,,
,,6h[8:1],,5h[8:1],,7h[8:1],,
3h[8:1],,4h[8:1],,2,,,,
{16}
3h[8:3]/5,,,,6,,7h[8:3],,
,,,,1,,,,
2qq3[8:4],,,,,,,,
6qq7[8:4],,,,,,,,
1,,,,2,,2h[8:2],,
,,7h[8:2],,,,1,,
,,6,,5,,4,,
3/6,,,,,,6,,
7<4[8:1],,,,7/2,,1-3[8:1]*-4[8:1],,
,,1-6[8:1]*-7[8:1],,,,1,,
,,,,,,3,,
2/4,,5,,6/4,,4qq4[8:5]*pp4[8:5],,
,,4,,,,,,
,,,,,,,,
2v5[8:1],,,,2/7,,8<5[8:1],,
,,8,,,,3,4,
{16}
2bq6[8:1],,,,2/8,,7<4[8:1],,
,,7/1qq6[8:6]*pp4[8:6],,,,1b,,
,,,,,,,,
,,,,,,6,5,
7bp3[8:1],,,,7/1,,2>5[8:1],,
,,2/8<5[8:1],,,,8>3[8:1],,
,,8,,7,,6,,
5/4,,,,,,3,4,
2-8[8:1],,2,,,,7-3[8:1],,
7,,,,4-6[8:1],,4,,
,,1<6[8:1],,,,1,,
2,,3,,4/5,,,,
8<5[8:1],,,,8/3,,2-6[8:1],,
,,2/4-8[8:1],,,,4,,
,,3,,2,,1bv4[8:1]/7bv4[8:1],,
,,7b/1b,,,,6,5,
7bv4[8:1],,,,7/2,,1>4[8:1],,
,,1/8pp3[8:6]*qq5[8:6],,,,8b,,
,,,,,,,,
,,,,,,3,4,
2bv5[8:1],,,,2/7,,8<5[8:1],,
,,8/1-3<4[8:1],,,,1-7<6[8:1],,
,,1,,2,,3,,
4/5,,,,,,6,5,
7h[16:3],,,1,,,5/3-8[8:1],,
,,3/5<8[8:1],,,,5>2[8:1],,
,,5/8,,,,7-3[8:1],,
1<3[8:2],,7,,1,,,,
8-4[8:1],,,,8/3,,2q6[8:1],,
,,2/7qq4[8:4],,,,7/2,,
1h[8:3],,,,,,,,
,,,,8b<6v4<5b[8:28]*>2v4<5b[8:28],,,,
8b/Cf,,,,,,,,
,,,,,,,,
,,,,,,,,
,,,,,,,,
,,,,,,,,
,,,,,,,,
,,,,,,,,
,,,,5hx[8:2]/4x,,,,
{16}
3h[8:2],,,,6,,6h[8:2],,
,,2,,2h[8:2],,,,
8,,8h[8:2],,,,3,,
3h[8:2],,,,5,,,,
6h[8:2],,,,4,,4h[8:2],,
,,7,,7h[8:2],,,,
1,,1h[8:3],,7x,6x,5x,4x,
3x,,,,,,,,
3bx/5bx,,,,7,,46,,
,,1h[8:2],,,,E7/B7,,
,,B3/E3,,,,B5/E5,,
E1/B1,,,,C,,,,
35,,2,,46,,7h[8:2],,
,,4,,3,,2h[8:2],,
,,7x,6x,5x,,4x,,
45,,,,,,,,
,,7h[8:2]/1,,1,,2,,
,,3h[8:6],,,,8,,
,,7,,,,6,,
,,5,,45,,,,
46,,7,,35,,2-4[8:1],,
,,5-1[8:1]/2,,,,5/8-6[8:1],,
,,8,,3,,4,,
4/5,,,,,,8,7,
6bhx[8:3],,,2,,,4,,
,,3h[8:2]/5,,,,6,,
,,46,,6,5,7,,
1,,28,,37,,,,
35,,3,4,2,,5,,
46,,,,6,5,7h[8:5],,
,,,,1,,1,,
{32}
1h[8:2],,,,,,,,
A6,D6,A5,D5,A4,,,,
{16}
2,,35,,6,,1h[8:2]/7,,
,,8,,,,2/8,,
,,7,,46,,3h[8:2],,
,,5,,,,46,,
,,,,4x,5x,3x,6x,
2x,7x,1x,,,,18,,
,,,,2h[8:2],,,,
8h[8:2],,,,4h[8:2],,,,
6,,,,,4,5,3,
6,2,7,1,8,,8b/1b,,
,,,,,,,,
,,,,,,,,
,,,,,,,,
,,,,,,,,
,,,,,,,,
,,,,,,,,
,,,,,,,,
,,,,,,,,
,,,,,,,,
,,,,,,,,
,,,,,,,,
,,,,,,,,
,,,,,,,,
,,,,,,,,
6h[8:3]/4,,,,,,3h[8:4],,
,,,,,,5,,
,,35,,,,4h[8:2],,
,,6,,,,3,4,
1b-5[8:1],,,,1/6,,7p3[8:1],,
,,7/2p8<3b[8:6],,2,,2,,
,,,,,,,,
,,,,,,6,5,
8b-4[8:1],,,,8/2,,2q6[8:1],,
,,2/7v4[8:1],,,,7,,
,,2>5[8:1],,6<1[8:1],,2,,
6,,,,,,3,4,
1h[16:3],,,7,,,4-1[8:1]*-7[8:1],,
,,4,,,,5<8[8:1]*>2[8:1],,
,,5,,,,1>4[8:1],,
,,1/6,,7qq4[8:3],,,,
7b/1,,,1,,,2,,
,,3/5,,,,1-3[8:1]/7,,
,,1-5[8:1],,7>5[8:2],,1,,
7,,,,,,,,
64,,7,,35,,2>4[8:1],,
,,2/6,,7,,8<6[8:1],,
,,8/4,,3,,2h[8:3],,
,,8,,7,,6,,
35,,2,,64,,7<5[8:1],,
,,7/3,,2,,1>3[8:1],,
,,1/5,,6,,7,,
48,,,,,,6,5,
8h[16:3],,,2,,,5-8[8:1]*-2[8:1],,
,,5,,,,4>1[8:1]*<7[8:1],,
,,4,,,,8<5[8:1],,
,,8/3,,2pp5[8:3],,,,
2b/8,,,8,,,7,,
,,6/4,,,,8-6[8:1]/2,,
,,8-4[8:1],,2>8[8:3],,8,,
2,,,,,,,,
{16}
5hx[8:9]/E1,,,,,,B2,,
,,,,C,,,,
,,E4,,,,,,
5<8[8:1],,,,5/3,,,,
4hx[8:9]/E1,,,,,,B7,,
,,,,C,,,,
,,E6,,,,,,
4>8[8:2]*<8[8:2],,,,4,,,,
,,,,,,,,
,,,,,,,,
,,,,,,,,
,,,,,,,,
E
