&title=まるで二重振り子のセカイ!
&artist=初音ミク
&first=0.125
&lv_5=14+
&des_5=∆t = 139s
&inote_5=
(273.15){4},,,,8,
1,7,2,
8,1,7,2-5b[8:1],
2/8h[2:1],,,7>2b[8:1],
7/3h[2:1],,,4-8b[8:1],
7/4,{8}5,5-2[8:1]*-3[8:1],,5<8[8:1],,5/Cf,
,,,,{2}2-5[8:1]/6-1[8:1],
{4}3b/7b,{8}6,6,4,4,{4}5h[4:1],
{8}2,2,8,8,1,1h[8:1],{4}7-4b[8:1],
{8}7x/3x>8[8:1],,,5x-1[8:1],,,{4}2x>5b[8:1],
{8},6x-3b[8:1],,,8x<5[8:1],,,1x-6[8:1],
,,{4}4bqq5<7b[4:3],,,,E1f/B1/A8/A1/B8,
,,,,,,,6h[2:3],
,,,4h[2:1],
,,,3/5,
2h[4:5],B2/B1,
,,,B3/B4,
5,4/6h[2:3],,B7/B8,
,4h[16:1],3h[16:1],2h[16:1],
1-5b[8:1],7/1,6h[4:1],{8}3,3,
{4}4<7[8:1],2,{8}1,1,{4}8h[4:1],
3-6[8:1],6,7h[4:1],{8}4,4,
{4}8<5[8:1],2,1h[4:1],{8}7,2x,
{4}2x-6[8:1],1,7,{8}4h[4:1],6,
{4}6<1[8:1],5,{8}3,3h[8:3],8,8,
,,7x-5[8:1]/3x-1[8:1],7x/3x,,,8x-2>3[8:1]/4x-6<7[8:1],4x/8x,
,,4x/8x<1b[8:5],4x/8x,,,,,,,{4}E1f/B8/B1/Ch[8:23],
{8},E6,,E5,
,E4,,,D6/A5,,,D8/A8,
,,{4}E8,E1,E2,
{8},E7,,,{4}A7/D7/A6,2h[8:5],
{8}4,4,,5,,6h[2:1],,8,
,2,,1h[8:5],,7,{4}7,
6,5h[4:3],3,1,
7,8b/2b-5[8:1],{8}6,6,,7,
,4/8<4[4:1],,,2h[4:1],,,6/2-5[8:1],
,7,{4}7,8,3h[4:1]/1-7-4[8:3],
{8},2h[4:1],,,{4}1-5b[8:1],6/1,
7,{8}6-1[8:1],4,{4}4,{8}2-5[8:1],8,
{4}8,6h[4:1],1,{16}2,3x,6,7x,
3x,4x,7x,8x,5x,4x,1x,8x,4x,3x,8x,7x,{4}Cf,
,,,1b/2b>5[4:1],
5<8[4:1],8>3[4:1],3,4<7[4:1],
7>2[4:1],2<4b[2:1],5,3,
{8}1,1-4[8:1]*-3[8:1],,1-6[8:1]*-7[8:1],,1,,,{4}4/5<7[8:1],
2h[4:1],8h[4:1],{12}2,3,4,
8,7,6,1h[4:1],{24},,,,{8}5,1/5,,3,
{4}3/7h[4:1],{12}E2/B2/E3,,E7/B6/E6,,E4/B4/E5,{24},,{8}8/C,8,
,2/B5,{4}2,4/6,{8}5x-7[8:1]/1x-3[8:1],1x/5x,
,,8x<5[8:1]/4x>1[8:1],8x/4x,,,{4}Cf/B5/B1,
{16}6,7,8,1,4,3,2,1,{4}7/8h[4:1],5h[4:1],
{16}2,3,4,5,8,7,6,5,{4}3/4h[4:1],1h[4:1],
{8}6,6-2[8:1]*-1[8:1],,6>3[8:1],,6x/C,,8,
{4}8>3[8:1],5h[4:1],4,{8}6/5,6/5,
{16}7,8,{8}1,3,3,{16}8,7,{8}6,4/3,3/4,
{16}2,1,{8}8,6,6,{16}1,2,{8}3,6/5,7h[4:1]/4h[4:1],
,,3/4,2h[4:1]/5h[4:1],,,8/1,8/1,
7/2,7/2,{24}6,5,4,3,2,1,8/4,7,6,5,4,3,(182.1){4}8b>7b[4:9]/2x>5[8:13],
{1},,{4},,,{12}2/4,
,2,
{6}5,{12}5,3h[12:1],,,{6}7/4,{12}7,5,,5,
{4}6h[12:1],{12}5/3,,3,{6}4,{12}4,2h[6:1],{24},,,,8/E3,
B3,{12}B4,,{4}7,6-3b[0.3295##0.1098],(273.15)6b/2,
1,1,1,7,
8,8,8,2x,
1,7,8,2,
7,1,8-4[8:1],{8}3x,3,
2,1h[4:1],,5,{4}5<8[8:1],2pp5[2:1],
2,6,{8},8,{4}3/8-6[8:1],
{8},2,{4}5/2-4[8:1],{8},1,{4}5/1-5[8:1],
1>4[8:1],1<6[8:1],1,{12}4,3,2,
5,6,7,1,8,1,7,2,7,3,6,3,
5,4,5,B4/B3,,,{4}B5/B6,{12}1,2,3,
8,7,6,4,5,4,6,3,6,2,7,2,
8,1,8,C,,,{4}B5/B4/E5,{12}2,3,4,
6,7,8,5,,5,1,8,7,4,3,2,
8,7,6,1,,1,5,6,7,2x-5[8:1]*-6[8:1],,2x,
,,,7x/4x>1[8:1],,4x/7xh[12:1],,,,6,6,1,
5,3,4,2,2,8,1,7,5>1[12:25],6b>1qq6b[8:35],{1},,,,{4},,,{16},{24},{16}7b/8<3[48:29],
{4},,,{24},2-5-7[2:1],
,,,,,,,,,,,,,,,,,8<3[8:5],
{4},,,{16},{48},{6}1-5pp7[48:31],
{4},,{16},,,{24},{16}8b<2p1b[16:39],
,,,,,,,,,,,,,D8,
,,,,,,,,,,,,,D6,,,,,,,,,,Cfh[16:9],
,,,,,,,,{1}8xw4[4:15],
{4},,,,,,,,,,,,,,,,,,6/4,
5h[4:3],
,C,,6h[4:5],
,,{2}E5,
{4},5,{8}5h[4:3],4,,,{2}C,
{4}6,{8}6,5,
6,4,6,3,6,2,{4}6,
1b/7b-4[8:1],{8}3,3,,2,,5/1>5[4:1],
,6,,7,,3/7-4[8:1],,2,
{4}2,1,{8}6h[4:1]/8-2-5[8:3],,,7h[4:1],
,,{4}8-4b[8:1],8/3,2,
{8}3-8[8:1],5,{4}5,{8}7-4[8:1],1,{4}1,
3h[4:1],8,{16}7,6x,3,2x,6x,5x,2x,1x,
4x,5x,8x,1x,5x,6x,1x,2x,{2}Cf,
{16},,,,,,,,E3,E4,E5,E6,E7,E8,E1,E2,
E3/D3,E4/D4,E5/D5,E6/D6,E7/D7,E8/D8,E1/D1,E2/D2,{2}E3/D3/Cf/A3,
,8x/7x<1[1:1],
,5>7[1:1],
,6h[1:1],
,8-3[2:1]*-5[2:1],
{6},,,7x/A4,{12}B4,7x,{6}B3,
7x/B2,{12}B1,7x,{6}B8,1x/A8,{12}B8,1x,{6}B7,
2x/B6,{12}B5,2x,{6}B4,5x/A4,{12}B4,5x,{6}B3,
6x/B2,{12}B1,7x,{6}B8,1x/A8,{12}B8,2x,{6}B7,
{4}3x/B6,4x>1b[8:1],E4f,7-3[8:1],
2,8-4[8:1],6,5<8[8:1],
3,1>4[8:1],7,{8}8,8-5[8:1],
,8-3[8:1],,,,6,{4}6>3[8:1],
{2}2-5[8:1],{8}8,8,{4}8h[8:1]/B2/E3,
{8}4,4,{4}4h[8:1]/C,{8}6,6,{4}6h[8:1]/B5/E5,
{8}2,2,{4}2h[8:1]/E7/B6,{16}8x,1x,{8}7x,{4}6h[8:1]/5h[8:1],
{16}1x,8x,{8}2x,{4}3h[8:1]/4h[8:1],{8}8/1,7/2,6/3,5/4,
{16}D3,D2,D1,D8,8x/D7,7x/D6,6x/D5,5x/D4,{4}E3f/D3,1>4[4:1],
4<7[4:1],7,8>3[4:1],3<6[4:1],
6<1[4:1],1,3,{8}5,7x-4[8:1]/5x-2[8:1],
,7x/5x-1b[8:1],,5bx/Cf,,3,{4}3>1[8:1],
7h[4:1],8h[4:1],{12}5x,6,7,1x,2,3,
{4}8h[4:1],{8}4,4/B8,,6,{4}6/2h[8:1],
{6}E7/B6/E6,E4/B3/E3,E1/A8/A1,{24}4/C,,,4,,,,,,{8}6/B1,
{4}6,8/2,{8}5x<8[8:1]/1x>4[8:1],1x/5x,,,3x-8[8:1]/7x-4[8:1],
7x/3x,,,{4}A6f/A2f/B6/B2,{16}1x/D8/E8,2,3,4,
5x/E2/D2,6,7,8,{4}1x/C,{16}7x,6,5,4,3x/E6/D6,2,1,8,
7x/E4/D4,6,5,4,{4}3x/C,{16}2x,3,4,5,6/8,7,8,1,
2x/4x,5,6,7,8/4,1,2,3,4x/8x,1,2,3,4/8,5,6,7,
8x/4x,1,2,3,{4}4/6-1b[8:1],E7f,{8}2,2-5-7[4:1],
,7<1b[8:3],,1x,,8,{4}8-4-7[4:1],
{8}2,2-5[8:1]*-6b[8:1],,2x,,7,{16}7,6,5,4,
1,2,3,4,1,8,7,6,{2}5x-1[8:1]/2x-5[8:1],
{4}8x/3x>8[8:1],7-4b[8:1],{2}7x/1xh[2:1],
{4},2<7b[8:1],{2}2/6h[2:1],
{4},5-1b[8:1],5/2,{8}4,4-7[8:1]*-6[8:1],
,4>1[8:1],,4/Cf,,,,,{2}7-4[8:1]/3-8[8:1],
6/2qq5[4:3],
,7qq8[4:3],
,3w7[4:7],
E
