&title=快乐女孩
&artist=刘惜君
&first=0.236
&des=FOMIK
&des_5=FOMIK
&lv_5=13+
&lv_6=13+
&inote_5=(168)
{16},,,,,,,,1h[8:3],,,,,,8v6<7-3[8:4],,,,,,,,,,,,2,,2,,,,2h[8:2]/4h[8:2],,,,,,,,5,,7>4[8:3],,1,,1h[8:3],,,,,,,,,,2,,4v6[8:1],,,,3,,,,2,,1,,1,,7,,8-5qq7[8:5],,2,,2h[8:3],,,,,,,,,,3h[8:2],,,,6h[8:2],,,,4,,7h[8:1],,3,,8h[8:1],,2<5[8:3],,,,8,,8h[8:3],,,,,,,,,,7,,5v3[8:1],,,,7,,8-6p4[8:4],,2,,2,,3,,3h[8:3],,,,,,,,7-5[8:1],,4-1[8:1],,7,,4,,,,7-3[8:1],,,,1w5[8:1]/7,,,,1b,,,,,,1>4[8:2],,,,4>1[8:2],,,,1>4[8:2],,,,4>1[8:2],,,,1>4[8:2],,,,4<8[8:2],,,,8>4[8:2],,,,C,,,,8<5[8:2],,,,5<8[8:2],,,,8<5[8:2],,,,5<8[8:2],,,,8<5[8:2],,,,5>1[8:2],,,,1<5[8:2],,,,C,,,,1-5[8:1],,,,18,,,,6-1[8:1]/3-8[8:1],,,,36,,,,1xpp1[8:2],,1x,,,,Cf,,,,7,,7,,,,3-1[8:1],,,,3-7[8:1],,,,3-5[8:1],,,,3x>5[8:2],,,,3,,,,1-5[8:1],,,,1b/8,,,,8,7,6,5,1,2,3,4,5,6,7,8,5h[8:2]/1h[8:1],,,,C,,,,2p5[8:2],,,,5>2[8:2],,,,2p5[8:2],,,,5>2[8:2],,,,2<7[8:2],,,,7-4[8:2],,,,6h[8:2],,,,,,,,7q4[8:2],,,,4<7[8:2],,,,7q4[8:2],,,,4<7[8:2],,,,7>2[8:2],,,,2-5[8:2],,,,3h[8:2],,,,,,,,6,,6,,4,,4,,3v1[8:1]/7v5[8:1],,,,3b/7b,,,,2,,2<3b[8:3],,,,Cf,,,,,,,,,,68,,,,13,,,,65,,,,43,,,,8,,8-4b[8:1],,,,1bh[8:4],,,,,,,,,,
{16}6,4,6,4,8,,3,5,3,5,3,5,1,,1,,7,,6>3[8:1],,,,6/3<6b[8:1],,,,2,,2,,,,2,,3-8[8:1],,,,3/6-1b[8:1],,,,36,,3,,,,7v2[8:1],,,,7/3v6[8:1],,,,3/7-4[8:1],,,,2-5[8:1]/7,,,,2,,8w4[8:1],,,,8b,,,,26,,26,,,,6,,7-4[8:1],,,,7/1-5b[8:1],,,,71,,7,,,,3,,2-6b[8:1]*-5b[8:1],,,,2,,,,7,,7,,,,28,,36,,17,,36,,45,,4-7[8:1]/5-2[8:1],,,,4b/5b,,,,1,7,2,8,3,6,4,5,2,7,1bx,,,,3,,3>8[8:1],,,,3/4v7b[8:1],,,,24,,2,,,,6,,6v1[8:1],,,,2>5b[8:1]/6,,,,72,,7,,,,2v7[8:1],,,,2/6v3[8:1],,,,6/2-5[8:1],,,,7-4[8:1]/2,,,,7,,1w5[8:1],,,,1b,,,,37,,37,,,,7,,6-1[8:1],,,,6/4-1b[8:1],,,,46,,6,,,,2,,3-7[8:1],,,,3/5<8b[8:1],,,,25,,2,,,,1-4-1[8:2],,8,,7,,7,,8x<2b[8:5],,8x,,,,1h[8:4],,,,,,,,,,,,,,,,,,
{16}7x,8,1,2,7x,8,1,2,7x,8,1,2,7x,,,,5h[8:1],,3h[8:1],,5h[8:1],,2>6[8:6],,,,,,7,,,,,,,,7h[8:3],,,,,,2h[8:1],,4h[8:1],,1h[8:1],,5h[8:3],,,,,,1h[8:1],,7xh[16:3],,,5xh[16:3],,,1x,,1x-6<8-4[8:4],,,,5h[8:4],,,,,,,,,,,,2/4,,3,,3,,5/7,,6,,6,,5/7,,4/6,,3/5,,2h[8:2]/4>7[8:2],,,,,,,,3,,3,,5,,5h[8:2],,,,2,,3,,7,,6,,2,,5,,3,5,3,5,4,6,4,6,2,5,2,5,4,6,4,6,1xqq4[8:4]*qq5[8:4],,,,,,,,,,,,,,,,2h[8:1],,7h[8:1],,2h[8:1],,6h[8:2],,,,,,,,2,4,2,,5-7-1[8:2],,5,,,,2,,2-6[8:1],,8,,2,,,,8,,5,,7,,4,,6,,1b/2b,,,,5h[8:1],,3,,6h[8:1],,2,,7h[8:1],,2,,6h[8:1],,1,,25,,36,,47,,8-6[8:1]/5-1[8:1],,,,,,,,,,57,,64,,35,,2/4>5[8:2],,,,,,,,2-5b[8:1],,,,27,,7,,7p4[8:2],,,,7b/2,
{16},,,,,1q6[8:2],,,,6p1[8:2],,,,1q6[8:2],,,,6p1[8:2],,,,1q6[8:2],,,,6<1[8:2],,,,1>5[8:2],,,,C,,,,8p3[8:2],,,,3q8[8:2],,,,8p3[8:2],,,,3q8[8:2],,,,8p3[8:2],,,,3>8[8:2],,,,8<4[8:2],,,,C,,,,1-5[8:1],,,,1,,,,6-1[8:1]/3-8[8:1],,,,36,,,,1xpp1[8:2],,1x,,,,Cf,,,,7,,7,,,,3-1[8:1],,,,3-7[8:1],,,,3-5[8:1],,,,3x>5[8:2],,,,3,,,,1-5[8:1],,,,1b/8,,,,8,7,6,5,1,2,3,4,5,6,7,8,5h[8:2]/1h[8:1],,,,C,,,,3q8[8:2],,,,8>3[8:2],,,,3q8[8:2],,,,8>3[8:2],,,,3p6[8:2],,,,6<2[8:2],,,,5h[8:2],,,,,,,,6p1[8:2],,,,1<6[8:2],,,,6p1[8:2],,,,1<6[8:2],,,,6q3[8:2],,,,3>7[8:2],,,,4h[8:2],,,,,,,,3,,3,,5,,5,,6v8[8:1]/2v4[8:1],,,,6b/2b,,,,7,,7>6b[8:3],,,,Cf,,,,,,,,,,31,,,,86,,,,34,,,,56,,,,1,,1-5b[8:1],,,,8bh[8:5],,,,,,,,,,2h[8:6],,,,4,,4,,,,6,,6,,,,5b-8[8:1],,5,,,,1bw5[8:1],,,,1b,,,,,,
{16}2,,3<6[8:1],,,,3/6>3b[8:1],,,,7,,7,,,,7,,6-1[8:1],,,,6/3-8b[8:1],,,,63,,6,,,,2v7[8:1],,,,2/6v3[8:1],,,,6/2-5[8:1],,,,7-4[8:1]/2,,,,7,,1w5b[8:1],,,,1b,,,,37,,37,,,,3,,2-5[8:1],,,,2/8-4b[8:1],,,,28,,2,,,,6,,7-3b[8:1]*-4b[8:1],,,,7,,,,2,,2,,,,71,,63,,82,,63,,54,,5-2[8:1]/4-7[8:1],,,,5b/4b,,,,8,2,7,1,6,3,5,4,7,2,8bx,,,,6,,6<1[8:1],,,,6/5v2b[8:1],,,,75,,7,,,,3,,3v8[8:1],,,,7<4b[8:1]/3,,,,27,,2,,,,7v2[8:1],,,,7/3v6[8:1],,,,3/7-4[8:1],,,,2-5[8:1]/7,,,,2,,8w4b[8:1],,,,8b,,,,26,,26,,,,2,,3-8[8:1],,,,3/5-8b[8:1],,,,53,,3,,,,7,,6-2[8:1],,,,6/4>1b[8:1],,,,74,,7,,,,8-5-8[8:2],,1,,2,,2,,1>7b[8:3],,1,,,,8h[8:4],,,,,
{32},,D1,D2,D3,D4,D5,D6,D7,D8,Cf,,
{16},,,3bx/5bx,,,,8-4[8:1],,2,,8-6[8:1],,2,,8w4[8:1],,,,8,,,,1-5[8:1],,7,,1-3[8:1],,7,,1w5[8:1],,,,1,,,,7-4[8:1],,1,,7>1[8:1]/2q6[8:1],,,,7/2,,,,3>8[8:1]/6,,,,36,,5w1[8:1],,,,5bx,,,,37,,37,,,,2-6[8:1],,5,,2-4[8:1],,5,,2w6[8:1],,,,2bx,,,,7-3[8:1],,4,,7-5[8:1],,4,,7w3[8:1],,,,7bx,,,,1-3[8:1],,8-6[8:1],,1-5[8:1],,8-4[8:1],,1,,8<2[16:4],,,,3h[8:3],
{32},,,,,,,,,,D2,D1,D8,D7,D6,D5,D4,D3,Cf,,
{16},,,6bx/4bx,,,,7-5[8:1],,8-4[8:1],,7,,8,,5x-8[8:1]*-2[8:1],,,,5,,,,2-4[8:1],,1-5[8:1],,2,,1,,4x-1[8:1]*-7[8:1],,,,4,,,,2-5[8:1],,8,,2<8[8:1]/7p3[8:1],,,,2/7,,,,6<1[8:1]/3,,,,63,,4w8[8:1],,,,4bx,,,,62,,62,,,,25,,1,,2-4-8[16:4]/5-3-8[16:4],,6,,25,,,,A8f,,,,74,,8,,7-5-1[16:4]/4-6-1[16:4],,3,,74,,,,A1f,,,,8-5-8[8:2],,1,,2,,2,,1>7b[8:3],,1,,,,8h[8:4],,,,,
{32},,D1,D2,D3,D4,D5,D6,D7,D8,Cf,,
{16},,,3b/5b,,,,1-4-1[8:2],,8,,7,,7,,8<2b[8:3],,8,,,,1h[8:4],,,,,
{32},,D1,D8,D7,D6,D5,D4,D3,D2,Cf,,
{16},,,4b/6b,,,,8-5-8[8:2],,1,,2,,2,,1>7b[8:3],,,,1x,,8h[8:4],,,,,
{32},,D1,D2,D3,D4,D5,D6,D7,D8,Cf,,
{16},,,3b/5b,,,,3,4,5,6,7,8,1,2,3,4,5,6,7-3[8:1],8,1,2,37,,,,,,,,,,,,,
E
&inote_6=
