&title=Get Ready!!
&artist=iF
&first=0
&des=iC
&lv_5=13+
&lv_6=14
&inote_5=(142){1},
{1},
{16}2b/6b,,3h[2:1]/5,,,,5,,,,5,,3,5,,2,
{16},,6h[2:1]/4,,,,4,,,,4,,6/4,,7,,
{16}2/8,,2h[2:1]/8,,,,8,,,,8,,2,8,,3,
{16},,6/4,,,,3/5,,2,4,2,,7,5,7,,
{16}1b/8b,,,,2/4,,,,4/5,,,,7/5,,1,8,
{16}1,,,,2/4,,,,4/5,,7/5,,1/8,,2,7,
{16}1>4[8:1],,6,,1,7,,8,5<8[8:1],,2,,5,3,,,
{16}4,8,4,8,3,7,3,7,2,6,2,6,1b-5[8:1],,,,
{4}2-4[8:1],8-6[8:1],4-8[8:1],5-7[8:1],
{4}1-3[8:1],8-4[8:1],1-5[8:1],1/6,
{4}7-5[8:1],1-3[8:1],5-1[8:1],4-2[8:1],
{4}8-6[8:1],1-5[8:1],8-4[8:1],8/3,
{4}2-6[8:1],5-8[8:1],1-4[8:1],7-3[8:1],
{4}5-1[8:1],8-4[8:1],2-7[8:1],2/6,
{4}4-8[8:1],1-5[8:1],7-2[8:1],7/3,
{16}7,5,6,1,8,2,4,3,8,1,7,5,6,1,8,2,
{4}4-7[8:1],2-6[8:1]/4,8-4[8:1]/2,1-6[8:1]/8,
{4}1/5-2[8:1],3-7[8:1]/5,8<5[8:1]*>3[8:1]/3,8,
{4}5-2[8:1],7-3[8:1]/5,1-5[8:1]/7,8-3[8:1]/1,
{4}8/4-7[8:1],6-2[8:1]/4,1>4[8:1]*<6[8:1]/6,1,
{4}8-3[8:1],5-1[8:1]/8,7-3[8:1]/5,2-6[8:1]/7,
{4}2/4-8[8:1],1-5[8:1]/4,8<5[8:1]*>3[8:1]/1,8,
{16}2/6,,7,,1,8,1,,2/6,,3,,5,4,5,,
{16}2,5,3,8,1,7,4,6,1,8,2,5,6V41[4:1]/1-3[8:1],,,,
{8}1V75[4:1]/6,,3,,2-6[8:1]*-4[8:1],,2,,
{8}7/3,8,1/6,2,7/3,6,2/5,3,
{16}7-5[8:1],,4-8[8:1],,7,,4,,5<8[16:3],,,8>3[16:3],,,3q6[16:6],,
{16}4,,,4,,,4,,,4,,,3V58[4:1]/8-6[8:1],,2,,
{4}8V24[4:1],6,7-3[8:1]*-5[8:1],7,
{8}2/6,3,8/4,7,1/6,2,7/3,6,
{16}2-4[8:1],,5-1[8:1],,2,,5,,4>1[16:3],,,1<6[16:3],,,6p3[16:6],,
{16}5,,,5,,,5,,,5,,,6-1[8:1]/2-4[8:1],,1V75[16:3],,
{4}2/6,2>5[4:1],5<8[4:1],8>3[4:1],
{8}5h[4:1],,,,2-4[8:1],5-1[8:1],2,5,
{4}3>8[4:1],8<5[4:1],5>2[4:1],8h[4:1],
{8},,8/2,7,3-8[8:1],7-4[8:1],3,7,
{16}1<6[8:1],,1,,2,,2,,3h[8:1]/5h[8:1],,,4h[8:1]/6h[8:1],,,7/5,,
{16}8>3[8:1],,8,,7,,7,,6h[8:1]/4h[8:1],,,5h[8:1]/3h[8:1],,,2/4,,
{16}8<5[8:1],,3,,8,2,,1,4>1[8:1],,7,,4,6,,,
{16}5,1,5,1,6,2,6,2,7,3,7,3,8b,,,,
{32}8/3,7,6,5,4,3,2,1,
{16}8,,3,,1/2,,3,4,1,8,3V15[4:1],,6-8[8:1],,7,,6,,,,7-5[8:1]/4-8[8:1],,8,,7/4,,,,
{32}1/6,2,3,4,5,6,7,8,
{16}1,,6,,7/3,,7,1,5,3,6,,
{16}4b,5,3,6,4,5,3,6,2b,1,3,8,2,1,3,8,
{32}2b,3,4,5,6,7,8,1,
{16}2/5,,6,,8/7,,6,5,8,1,6V84[4:1],,3-1[8:1],,2,,3,,,,2-4[8:1]/5-1[8:1],,1,,2/5,,,,
{32}8,7,6,5,4,3,2,1,
{16}8/4,,3,,2/6,,2,8,4,6,3,,
{16}5b,4,6,3,5,4,6,3,7b,8,6,1,7,8,6,1,
{16}7h[8:1],,1,8,2h[8:1],,8,1,7h[8:1],,1,8,2h[8:1],,8,1,
{16}7h[8:1],,4,5,3h[8:1],,5,4,6h[8:1],,4,5,3h[8:1],,5,4,
{16}6h[8:1],,8,7,1h[8:1],,7,8,6h[8:1],,4,5,3h[8:1],,5,4,
{16}6h[8:1],,2,1,3h[8:1],,1,2,8h[8:1],,3,4,2h[8:1],,4,3,
{16}5b,,2,1,2,1,3,8,3,8,4,7,4,,6h[4:1],,
{16}5b,,8,7,8,7,1,6,1,6,2,5,2,,3,,
{16}5<8[8:1],,2,,5,3,,4,1>4[8:1],,6,,1,7,,,
{16}8,4,8,4,7,3,7,3,6,2,6,2,5b-1[8:1],,,,
{16}5/2,,,,3-7[8:1],,7V14[16:3],3,,,5-8[8:1],,6,,5,,
{16}2,,,,6-2[8:1],,2V85[16:3],6,,,4-1[8:1],,3,,4,,
{16}7,,,,2-6[8:1],,6V41[16:3],2,,,8-5[8:1],,7,,8,,
{16}3,,,,7-3[8:1],,3V58[16:3],7,,,1-4[8:1],,2,,1,,
{16}6,,,,3-7[8:1],,7V14[4:1],3,,,6,,5-8[8:1]*-2[8:1],,5,,
{16}5,,,,6-2[8:1],,2V85[4:1],6,,,3,,4-1[8:1]*-7[8:1],,4,,
{16}4,,,,2-6[8:1],,6V41[4:1],2,,,8,,7,,6,,
{16}1,6,8,7,1,6,4,5,3,6,2,1,3V58[4:1]/8-6[8:1],,,,
{8}8V24[4:1]/3,,5,,7-3[8:1]*-5[8:1],,7,,
{8}2/6,1,8/3,7,2/6,3,7/4,6,
{16}2-4[8:1],,5-1[8:1],,2,,5,,4>1[16:3],,,1<6[16:3],,,6p3[16:6],,
{16}5h[8:1],,,5h[8:1],,,5h[8:1],,,5h[8:1],,,6V41[4:1]/1-3[8:1],,7,,
{8}1V75[4:1]/6,,4,,2-6[8:1]*-4[8:1],,2,,
{8}7/3,8,1/6,2,7/3,6,2/5,3,
{16}4>1[8:1],,7,,4,6,,5,8<5[8:1],,3,,8,2,,,
{16}1,5,1,5,2,6,2,6,3,7,3,7,4b-8[8:1],,,,
{1}4b,
{1},
{1},
E
&inote_6=(142){1},
{1},
{8}5b/3h[1:2],5h[16:1],,5h[16:1],,6h[16:1],,6h[16:1],
{8},7h[16:1],,7h[16:1],,8h[16:1],,8,
{8}7h[1:2],1h[16:1],,1h[16:1],,2h[16:1],,2h[16:1],
{8},3h[16:1],,3h[16:1],,4h[16:1],,4,
{8}3,,2/5,,3/5,,6/4,7,
{8}8/1,,2/4,,3/5,,6/4,7,
{16}1h[1:0]/8,2,3,4,5,6,7,8,
{24}1h[1:0],2,3,4,5,6,7,8,1,2,3,4,
{32}5h[1:0],6,7,8,1,2,3,4,5,6,7,8,1,2,3,4,
{48}5h[1:0],6,7,8,1,2,3,4,5,6,7,8,1b-5[8:1],,,,,,,,,,,,
{16}8h[8:1]/1,,,,8h[8:1],,,,8h[8:1]/4-2[8:1],,,,8h[8:1],,,,
{16}8-4[8:1],,,,1h[8:1]/8,,,,1h[8:1],,,,1h[8:1]/5-7[8:1],,,,
{16}1h[8:1],,,,2-5[8:1],,,,8h[8:1]/2,,,,8h[8:1],,,,
{16}8h[8:1]/4-1[8:1],,,,8h[8:1],,,,7-4[8:1],,,,1h[8:1]/7,,,,
{16}1h[8:1],,,,1h[8:1]/5-8[8:1],,,,1h[8:1],,,,2-6[8:1],,,,
{16}8h[8:1]/2,,,,8h[8:1],,,,1h[8:1]/5-8[8:1],,,,1h[8:1],,,,
{16}7-3[8:1],,,,1h[8:1]/7,,,,8h[8:1]/4-1[8:1],,,,8h[8:1],,,,
{16}8,2,4,3,1,5,8,2,4,3,1,5,8,2,4,3,
{8}1-7[8:1],1,3-5[8:1],3,1-7[8:1],1,3-5[8:1],3,
{8}8b-4[8:1],1,3-6[8:1],2,8-4[8:1],1,3-6[8:1],2,
{8}8-6[8:1],8,2-4[8:1],2,8-6[8:1],8,2-4[8:1],2,
{8}7-3[8:1],8,2-5[8:1],1,7-3[8:1],8,2-5[8:1],1,
{8}7b-1[8:1],7,5-3[8:1],5,6-8[8:1],6,4-2[8:1],4,
{8}5-7[8:1],5,3-1[8:1],3,4-6[8:1],4,2,1,
{16}7,,6/4,,1,8,1,,2,,3/5,,8,1,8,,
{16}1,7,5,6,8,4,1,7,5,6,8,4,1,7,5,6,
{8}8>4[4:1],6,4-8[4:1],6,8>4[4:1]*q5[4:1],,,,
{8},,6-1[8:1],7,4-8[8:1],3,5-1[8:1],6,
{8}3-8[8:1],4,7<8[4:1],6,2h[4:1],,,,
{16}8h[8:1]/7h[8:1],,,8h[8:1]/7h[8:1],,,8h[8:1]/7h[8:1],,,8h[8:1]/7h[8:1],,,8h[8:1]/7h[8:1],,,,
{8}5<1[4:1],3,1-5[4:1],3,5<1[4:1]*q2[4:1],,,,
{8},,2-5[8:1],3,8-4[8:1],7,1-5[8:1],2,
{8}7-4[8:1],8,3>4[4:1],2,6h[4:1],,,,
{16}5h[8:1]/4h[8:1],,,5h[8:1]/4h[8:1],,,5h[8:1]/4h[8:1],,,5h[8:1]/4h[8:1],,,5h[8:1]/4h[8:1],,,,
{8}3/6,1/8,5/4,2/7,4-2[8:1]/5<8[8:1],,4-8[8:1],,
{8}4<7[8:1]*>1[8:1],,4,,1/7,3/5,2/8,4/6,
{8}6/3,8/1,4/5,7/2,5-7[8:1]/4>1[8:1],,5-1[8:1],,
{8}5>2[8:1]*<8[8:1],,5,,8/2,6/4,7/1,5/3,
{8}2>5[8:1],2,1-5[8:1],1,8-4[8:1],8,7<4[8:1],7,
{8}3>8[8:1],3,4-8[8:1],4,5-1[8:1],5,6,6,
{16}4h[1:0],3,2,1,8,7,6,5,
{24}4h[1:0],3,2,1,8,7,6,5,4,3,2,1,
{32}8h[1:0],7,6,5,4,3,2,1,8,7,6,5,4,3,2,1,
{48}8h[1:0],7,6,5,4,3,2,1,8,7,6,5,4b-8[8:1],,,,,,,,,,,,
{16},,,,1/7,,5/6,,3/4,,2,8,2,8,2,,1qq8[8:1]/7,,8,,3/1>4[32:3],,2,,1<6[32:3]/7,,8,,1pp2[8:1]/3,,2,,
{16}1b,,,,7/1,,3/5,,2/8,,1,1,1,1,1,,
{16}2,4,3,5,4,6,5,7,7,5,6,4,5,3,4,2,
{16}2,,,,8/2,,4/3,,6/5,,7,1,7,1,7,,8pp1[8:1]/2,,1,,6/8<5[32:3],,7,,8>3[32:3]/2,,1,,8qq7[8:1]/6,,7,,
{16}8b,,,,2/8,,6/4,,7/1,,8,8,8,8,8,,
{16}7h[1:0],5h[1:0],6h[1:0],4h[1:0],5h[1:0],3h[1:0],4h[1:0],2h[1:0],2h[1:0],4h[1:0],3h[1:0],5h[1:0],4h[1:0],6h[1:0],5h[1:0],7h[1:0],
{16}7h[8:1],,5,5,7h[8:1],,5,5,7h[8:1],,4,4,7h[8:1],,4,4,
{16}3h[8:1],,6,6,3h[8:1],,6,6,3h[8:1],,7,7,3h[8:1],,7,7,
{16}2h[8:1],,6,6,2h[8:1],,6,6,2h[8:1],,5,5,2h[8:1],,5,5,
{16}6h[8:1],,3,3,6h[8:1],,3,3,6h[8:1],,2,2,6h[8:1],,2,2,
{16}7b,,1,8,1,8,1,8,1,8,1,8,1,8,1,,
{16}2b,,8,1,8,1,8,1,8,1,8,1,8,1,8,,
{16}8h[1:0],7,6,5,4,3,2,1,
{24}8h[1:0],7,6,5,4,3,2,1,8,7,6,5,
{32}4h[1:0],3,2,1,8,7,6,5,4,3,2,1,8,7,6,5,
{48}4h[1:0],3,2,1,8,7,6,5,4,3,2,1,8b-4[8:1],,,,,,,,,,,,
{16}8b/2b-6[8:1]*-5[8:1],,,,2,,,,7<4[8:1],8,,8,7-3[8:1],,1,,
{16}7/1-6[8:1]*-4[8:1],,,,1,,,,2>5[8:1],1,,1,2-6[8:1],,8,,
{16}2/8-3[8:1]*-5[8:1],,,,8,,,,1>4[8:1],8,,8,1-5[8:1],,7,,
{16}7-3[8:1]*-4[8:1]/1,,,,7,,,,8<5[8:1],1,,1,8-4[8:1]*-3[8:1],,2,,
{16}8b,,,,2/6,,,,
{32}1/5,,2/6,,,,3/7,,2>5[8:1]/6<1[8:1],,,,1/5,,,,
{16}2/6q3[8:1],,,,6,,,,
{32}8/4,,7/3,,,,2/6,,7<4[8:1]/3>8[8:1],,,,8/4,,,,
{16}7/3p6[8:1],,,,3,,,,
{32}1/5,,2/6,,,,3/7,,2/6,,,,1/5,,,,
{16}5h[1:0],8h[1:0],7h[1:0],1h[1:0],8h[1:0],2h[1:0],1h[1:0],4h[1:0],4h[1:0],1h[1:0],2h[1:0],8h[1:0],1h[1:0],7h[1:0],8h[1:0],5h[1:0],
{8}2>5[32:3],4<7[32:3],6<1[32:3],8>3[32:3],2q7[16:3]*>6[16:3],,,,
{8},,6-1[8:1],7,4-8[8:1],3,5-1[8:1],6,
{8}3-8[8:1],2,7<8[4:1],6,2h[4:1],,,,
{16}8h[8:1]/1h[8:1],,,8h[8:1]/1h[8:1],,,8h[8:1]/1h[8:1],,,8h[8:1]/1h[8:1],,,8h[8:1]/1h[8:1],,,,
{8}7<4[32:3],5>2[32:3],3>8[32:3],1<6[32:3],7p2[16:3]*<3[16:3],,,,
{8},3,2-5[8:1],1-6[8:1],2,1,4h[4:1],,
{16}5h[1152:69],6h[1152:66],7h[1152:63],8h[1152:60],1h[1152:57],2h[1152:54],3h[1152:51],4h[1152:48],
{24}5h[1152:47],6h[1152:46],7h[1152:45],8h[1152:44],1h[1152:43],2h[1152:42],3h[1152:41],4h[1152:40],5h[1152:39],6h[1152:38],7h[1152:37],8h[1152:36],
{32}1h[4608:141],2h[4608:138],3h[4608:135],4h[4608:132],5h[4608:129],6h[4608:126],7h[4608:123],8h[4608:120],1h[4608:117],2h[4608:114],3h[4608:111],4h[4608:108],5h[4608:105],6h[4608:102],7h[4608:99],8h[4608:96],
{48}1h[1152:22],2h[1152:20],3h[1152:18],4h[1152:16],5h[1152:14],6h[1152:12],7h[1152:10],8h[1152:8],1h[1152:6],2h[1152:4],3h[1152:2],4h[1:0],5b-1[8:1],,,,,,,,,,,,
{1}5h[1:2],
{1},
{1},
E
