&title=feels so right
&artist=mysteka/renko
&first=0
&des=FOMIK
&des_5=FOMIK
&lv_5=13
&inote_1=(180)
&inote_5=(180)
{8},,,,,,,,
{16},,,,1,,,,1,,,,1>4[8:2],,,,4p7[8:2],,,,7pp3[8:4],,,,,,,,,,,,,,,,8,,,,8,,,,8<5[8:2],,,,5q2[8:2],,,,2qq6[8:4],,,,,,,,,,,,,,,,
{16}3>6[8:4],,,,,,,,5,,,,,,,,6<3[8:4],,,,,,,,4,,,,,,,,3v6[8:2],,,,6>3[8:2],,,,3xp6[8:8]*>6[8:8],,,,,
{16},,,,,,,,,,,,,,,,,,,2,,,,2,,,,2>5[8:2],,,,5p8[8:2],,,,8pp4[8:4],,,,,,,,,,,,,,,,7,,,,7,,,,7<4[8:2],,,,4q1[8:2],,,,1qq5[8:10],,,,,,,,3>6[8:6],,,,,,,,,,
{16},,,,,,,,,,,,,,3,,,,3<3b[8:16],,,,8h[8:16],,,,,,
{8},,,,,,,,,,,,,,,,
{16},,27,,,,27,,,,2-4-1-5[8:4],,,,2,,,,6,,,,6h[8:8],,,,A4,,,,A3,,,,A4,,,,A3,,,,7-5-8-4[8:4],,,,7,,,,3,,,,3h[8:8],,,,A5,,,,A6,,,,A5,,,,A6,,,,
{16}2-4-1-5[8:4],,,,2,,,,6,,,,6h[8:8],,,,A4,,,,A3,,,,A4,,,,A3,,,,1-3[8:1],,8,,1,,,,7-4[8:1],,6,,7,,,,3-1[8:1],,4,,3,,,,2-5[8:1],,8,,2,,,,,,,,
{16}28,,1,,27,,8,,27,,1,,2/7qq4[8:5],,,,2,,,,2,,,,2,,,,2,,,,3x/5x,,,,36,,5,,36,,4,,3qq8[8:5]/6,,,,6,,,,6,,,,6,,,,6,,,,
{16}1x/7x,,,,27,,8,,27,,1,,2/7qq4[8:5],,,,2,,,,2,,,,2,,,,2-5[8:1],,,,,,8-4[8:1],,,,,,1b>1[8:4],,,,,,,,,,,,,,
{16},,,,,,6,,,,6h[8:2]/4,3,2,1,8-4[8:1],,,,8/2h[8:6],,,,,,4,,5,,6,,7,,8z4[8:2],,17,,8,,,,,,2q6[8:1],,,,21,,,,8p4[8:1],,,,18,,,,3p7[8:1],,,,34,,,,C,
{16},,,3,,,,3h[8:2]/5,6,7,8,1-5[8:1],,,,1/7h[8:6],,,,,,5,,4,,3,,2,,1,,48,,26,,2qq7[8:8]/6qq3[8:8],,,,,,,,,,,,,,,,,,,
{16},,,,,4-2[8:1]*v7[8:1],,,,4,,,,5<8[8:1],,,,5/8,1,2,3,4h[8:2],,,,,,7,,7h[8:1]/2qq6[8:3],,,,,,,,4,,4,,4-1[8:1],,,,4-6[8:1],,,,4,,,,2h[8:4],,,,6qq1[8:3],,,,,
{16},,,,,,,2p6[8:1]/3-6[8:1],,,,23,,,,1>4[8:1],,,,1/4,5,6,7,8h[8:2],,,,,,3,,3h[8:1]/6qq2[8:3],,,,,,,,8,,8,,8-5[8:1],,,,8-2[8:1],,,,8,,,,6h[8:4],,,,2qq5[8:3],,,,,
{16},,,,,,,7p3[8:1],,,,7,,
{16},,2,,,,2h[8:2]/8,7,6,5,4-8[8:1],,,,4/6h[8:6],,,,,,8,,1,,2,,3,,4z8[8:2],,53,,4,,,,,,6q2[8:1],,,,56,,,,4p8[8:1],,,,45,,,,7p3[8:1],,,,78,,,,C,
{16},,,7,,,,7h[8:2]/1,2,3,4,5-1[8:1],,,,5/3h[8:6],,,,,,1,,8,,7,,6,,5,,84,,62,,6qq3[8:8]/2qq7[8:8],,,,,,,,,,,,,,,,,,,
{16},,,,,8-6[8:1]*v3[8:1],,,,8,,,,1>4[8:1],,,,1/4,5,6,7,8h[8:2],,,,,,3,,3h[8:1]/6qq2[8:3],,,,,,,,8,,8,,8-5[8:1],,,,8-2[8:1],,,,8,,,,6h[8:4],,,,2qq5[8:3],,,,,
{16},,,,,,,3q7[8:1]/2-7[8:1],,,,32,,,,1>4[8:1],,,,1/4,5,6,7,8h[8:2],,,,,,3,,3pp1[8:4]/6qq8[8:4],,,,,,,,,,,
{16},,,,,7-4[8:1],,,,,,1-5[8:1],,,,,,8b>8[8:4],,,,,,,,,,,,,,
{16},,,,,,1x>8[8:56]*p8[8:24],,,,,,,,,,,,,,,,,,,,,,,,,,,,,,,,,,,,,,,,,,,,,,,,,,,,,,,,,,,,,,,,8q1[8:24],
{8},,,,,,,,,,,,,,,,,,,,,,,,,,,
{16},,,,,,,,,3/B5,,,,,,,,,,,,,,,,2/B4,,,,,,,,,,,,,,,,1/B3,,,,,,,,,,,,,,,,8/B2,,,,,,,,,,,,,,,,7/B1,,,,,,,,,,,,,,,,6/B8,,,,,,,,,,,,,,,,5/B7,,,,,,,,,,,,,,,,4/B6,
{16},,,,,,,3h[8:2],,,,4,,,,5<8[8:2],,,,8>3[8:2],,,,3<6[8:2],,,,6V82[8:2],,,,2V46[8:2],,,,,,,,1<6[8:2],,,,6>3[8:2],,,,3>8[8:2],,,,8V64[8:2],,,,4V28[8:2],,,,
{16}8V64[8:2],,,,,,,,,,,,2h[8:2],,,,6-1[8:1],,,,4h[8:2],,,,7<4[8:1],,,,2h[8:2],,,,7-1[8:1],,,,3h[8:2],,,,7<4[8:1],,,,2h[8:2],,,
{16},,,,,5q8[8:8]/4qq1[8:8],,,,,,,,,,,
{16},,,,,,,,,,,,,4q8[8:1]/2,,,,4/2q6[8:1],,,,24,,,,1-5[8:1],,,,1-3[8:1],,,,1-7[8:1],,,,1,,,,,,,,5p1[8:1]/7,,,,5/7p3[8:1],,,,7,,,,8-4[8:1],,,,8-6[8:1],,
{16},,8-2[8:1],,,,8-3[8:1]*-5[8:1],,,,8-4[8:1]*-6[8:1],,,,8-2[8:1]*-3[8:1],,,,8-5[8:1]*-6[8:1],,,,8,,,,2,,,,5,,6,,7,,7,,8h[8:2],,
{16},,,,,,3h[8:2],,,,,,,,5h[8:2],,,,7-2[8:1],,,
{16},7,,,,4,,,,1-6[8:1]/5-2[8:1],,,,1b/5b,,,,8<5[8:1]/2,,,,8b/3b,,,,2h[16:1],,,,8,2,8,
{16},3,,3,,8,,4,,36,,5,,36,,4,,36,,,,2,4,3,5,2h[16:1],,6,,3,,4,,7,,2,,6,,,,1h[16:4],,,,2h[16:3],,,
{16},3,,3,,6,,6,,2h[8:2],,,,,,,,4,7,5,6,4,7,5,6,4>1[8:1],,,,6,,,,5<8[8:1],,,,3,,2,,1h[8:1],,3,,8h[8:1],,6,,C,,,,4h[8:1],,2,,5h[8:1],,7,,
{16}2h[8:1],,4,,1h[8:1],,7,,C,,,,3h[8:2]/6h[8:2],,,,,,1,7,1,,6,,4,,5,,27,,1,,27,,8,,27,,,,7,5,6,4,7h[16:1],,3,,6,,5,,2,,7,,3,
{16},2,,5h[8:2],,,,3h[16:3],,,,6,,6,,1,,1,,7h[8:2],,,,,,,,5,2,4,3,5,2,4,3,5<8[8:1],,,,3,,,,4>1[8:1],,,,6,,,,8h[8:1],,6,,1h[8:1],,3,,C,,
,,4h[8:1],,2,,5h[8:1],,7,,4h[8:1],,2,,Cf,,,,,,,
{16},8p4[8:1]/4p8[8:1],,,,8>4[8:1]/4<8[8:1],,,,8p4[8:1]/4p8[8:1],,,,8>4[8:1]/4<8[8:1],,,,8-5[8:1]/4-1[8:1],,,,48,,,,48,,,
{16},48,15,26,37,4p8[8:1]/8p4[8:1],,,,4<8[8:1]/8>4[8:1],,,,4p8[8:1]/8p4[8:1],,,,4<8[8:1]/8>4[8:1],,,,48,,,,26,,,,
{16}1,,1,,5,,5,,3h[8:2],,,,,,,,8,7,6,5,1,2,3,4,5-1[8:1],,,,5>2[8:1]*<8[8:1],,,,5w1[8:1],,,,5,,,,4h[8:1],,2,,5h[8:1],,7,,C,,,,5h[8:1],,7,,4h[8:1],,2,,5h[8:1],,7,,C,,
{16},,,,,,1q5[8:1]/5q1[8:1],,,,1<5[8:1]/5>1[8:1],,,,1q5[8:1]/5q1[8:1],,,,1<5[8:1]/5>1[8:1],,,,1-4[8:1]/5-8[8:1],,,,51,,,,51,,,
{16},51,84,73,62,5q1[8:1]/1q5[8:1],,,,5>1[8:1]/1<5[8:1],,,,5q1[8:1]/1q5[8:1],,,,5>1[8:1]/1<5[8:1],,,,51,,,,37,,
{16},,8,,8,,4,,4,,6h[8:2],,,,,,,,1,2,3,4,8,7,6,5,4-8[8:1],,,,4-2[8:1]*-6[8:1],,,,4-1[8:1]*-7[8:1],,,,4w8[8:12],,,,4,,,
{16},,,,,,,,,,,,,,,,,,,,,,,,,,,,
{16},,,,,31,,2,,68,,7,,12,,4,,78,,5,,1b-4[8:1]/2,,,,1b-6[8:1]/8,,,,1b-4[8:1]/2,,,,8b/1b,,,,7x/5x,,6,,24,,3,,56,,8,,4b-1[8:1]/3,,,,4b-7[8:1]/5,,,,4b-1[8:1]/3,,,,4b/5b,,,,,,
{16},,3x/1x,,2,,68,,7,,1v6[8:1]/8,,2,,8v3[8:1]/1,,,,8/2-7[8:1],,,,2/6-3[8:1],,,,26,,,,8-6[8:1],,1,,8,,,,2-5[8:1],,3,,2,,,,6-8[8:1],,5,,6,,,,7-4[8:1],,1,,7,,,
{16},,,,,17,,4,,28,,5,,1/7-3[8:1],,4,,2-6[8:1]/7,,,,2/7-3[8:1],,,,2-6[8:1]/7,,,,2/8-4[8:1],,,,,,,
{16},3x/5x,,8,,46,,1,,3-8[8:1]/5,,8,,3/6-1[8:1],,,,6/3-8[8:1],,,,3/6-1[8:1],,,,4-8[8:1]/6,,,,,,,,5x/6x,,1,,34,,8,,56,,1,,5v2[8:1]/4>2[8:1],,,,4v7[8:1]/5<7[8:1],,,,5v2[8:1]/4>2[8:1],,,,45,,,,8qq5<8[8:12],,,,,,4qq1>4b[8:9],
{16},,,,,,,,,,,,,,,,,,,,,,,,,E7/B7/B6/Cf/B2/B3/E3,,,,,,,,,,,
{16},,,,,,,,,E6,,,,B5,,,,B4,,,,E4,,,,,,,,,,,,B3,,E3,,,,,,,,,,B6,,,,,,,,C,,,
{16},,,,,,,,,,,,,,,,,A1,,,,A2,,,,A3,,,,A4,,,,,,,,A8,,,,,,,,A7,,,,,,,,
{16}A6,,,,,,,,
{16}1-5[8:1],,8,,1,,8,,1-4[8:1],,8,,1,,,,2-5[8:1],,6,,2,,6,,3-7[8:1],4,3,5,3,,,,8-4[8:1],,1,,8,,1,,8-5[8:1],,1,,8,,,,7-4[8:1],,3,,7,,3,,6-2[8:1],5,6,4,6,,,
{16},3,4,3,,6,5,6,,2,1,2,,7,8,7,,3,4,3,,6,5,6,,2,1,2,,7,8,7,,1,2,3,4,5,6,7,8,15,26,37,48,1,2,3,4,7-2[8:1]/3-6[8:1],,,,37,,,,3v8b[8:1]/7v4b[8:1],,,,37,,
&inote_6=
