&title=SUNNY DAY SONG
&artist=μ's
&first=1.29
&des=School Idol = san
&lv_6=舞
&inote_6=(173.15)
{1},
{4}3<7[4:1],3h[4:1],,,
1pp3[4:1]/8qq6[4:1],,,,
45,,27,,4>1[4:2]/5<8[4:2],,,,,,
{16}8,7,8,7,8,7,8,7,
{4}15,48,15,48,65,43,{8}43,B8/B7,B8/B7,,
{4}25,47,25,47,34,56,{8}56,B1/B2,B1/B2,,
{4}17,28,17,28,65,43,{8}43,B8/B7,B8/B7,,
{4}1>4[4:2]/8<5[4:2],,,,5,4,6,3,
{8}3-8[346#4:1],3h[8:5],,7-3[346#4:1],7,,5>5[346#2:3],5,
{1},
{4}18,27,3h[4:1]/6h[4:1],,18,27,3h[4:1]/6h[4:1],,
{8}3v2[4:1]/6v7[4:1],27,,,,,,,18,,36,,Ch[4:1]/B3/B6,,
{4},8h[4:4]/4h[4:9],,,,,{8}2,6,,5,3V57[4:1],,,,,,,,6,84,,84,84,84,84,84,84,,
{4}5h[4:2],6,2-7[4:1],4h[4:2],,3,46,
,5h[4:2],6,C,4,2h[4:3]/7h[4:3],,,,
{8}8/C,,,15,,,,,{4}1xh[4:6]/2xh[4:6]/C,,,,
5pp5[4:1],5qq5[4:1],,{8},Chf[8:7],
{4},,,,
{4}5-8[8:1],,6x,,4-1[8:1],,3x,,
5-8[8:1]/4-1[8:1],,3x/6x,,5-8[8:1]/4-1[8:1],,2x/7x,,
5h[4:2],,B5,,4h[4:2],,B4,,Chf[4:2],,,,,{8},1>4[8:1]/8<5[8:1],,,,,
{4}6h[4:1]/1,5,3h[4:1]/8,4,
{4}6h[4:1]/1,5,3h[4:1]/8,4,
{4}6h[4:1]/B1,5,3h[4:1]/B8,4,
{4}6h[4:1]/B1,5,3h[4:1]/B8,4,
1>4[346#4:1]/8<5[346#4:1],,B2/2x,,
3x/B3,4x/B4,5x/B5,6xpp8[8:1]*qq4[8:1]/B6,,,
6,6-3[2:1]*-3[2:1],6,,,
{8}45,45,,45,2b/7b,,,,
{4},45,45,2b/7b,,45,45,2b/7b,
,7/B2,,2/B7,,
7b/B2,2b/B7,7b/B2,2b/B7,
3h[4:1]/B3/8h[4:1],,6h[4:1]/B6/1h[4:1],,
6b/B6/1b,6b/B6/1b,6b/B6/1b,,
{8}2-5[8:1]/6-1[8:1],5-2[8:1]/1-6[8:1],,,,,,,,,,
3b/B3/8b,,,,,
{4}3b/B3/8b,3b/B3/8b,3b/B3/8b,3b/B3/8b,3b/B3/8b,
3b/B3/8b,3b/B3/8b,3b/B3/8b,
{16}3h[4:10]/B3/8b,,,,1x,1x,8x,7x,6x,,,,
6x,6x,7x,8x,1x,,,,
1x,1x,8x,7x,6x,,,,
{4}5>5[4:2],,,,4<4[4:2],,,,,45,,36,
4xqq1[4:2]/5xpp8[4:2],,,,,
3h[4:6]/6h[4:1],,{8},5,5-8[4:2],5,
{4},,,,
48,48,48,48,48,4/E8,4/B8,4/C,
{8}7,5,6,4,5,3,4,2,56,,43,,4b/3b,B8/B7,B8/B7,,
{4}48,48,48,48,48,4/E8,4/B8,4/C,4/5-8[4:2],4,4,4,
48,48,48,48,
{8}48,48,,47,47,,36,36,
{4},,,,5-8[1:1],,,,,,,,,,,,,,,,,,,
4qq4[1:1]*pp4[1:1],
