&title=僕らは童貞
&artist=Adult family
&first=0
&des=稚嫩的白鸽
&lv_6=18+
&inote_6=(154){1},
{1}1h[1:2],B2/B8,
{1}8-5[4:6],{32}B1/E2,B2,B3,E4,,,,,,,,,,,,,,,,,,,,,,,,,,,,,
{1}4V68V24V68[4:6],B1/B2/B3/B4/B5/B6/B7/B8,
{1}6q3>7q4[4:6],A5/B5/C/B1/A1,
{1}3pp8[4:6]/5qq8[4:6],,
{4}4-8[8:1],,4-8[8:1]*-8[8:1],,4-8b[8:1],,
{4}A1/D1/A8/D8/A7/E1/E8/E2/B1/B8/B7/E7/D2/D7,,
{1}6-3[4:2]/7-2[4:2],8-5>4[4:2]/4-1<8[4:2],
{1}5qq4p8b[4:6]/3pp4q8b[4:6],,
{4}2pp2p6[4:3],,B4/B5/E5/D5,,1-5[8:1],1,,
{4}7h[4:3],8-6-1-5-2-4[4:3],,,,8-4[8:1],8,,,
{4}7<6-3>2-7[4:4],,C,,B6/B5,B2/B1,,
{4}3h[4:3],6<2<6<2[4:5],,,,4,E4/E5/B4/C,,,
{4}2pp7>8-2>3[4:3]/5h[4:2],,,,5-1[8:1],5,,
{8}8,7,{4}6-1[8:1]/2-5[8:1],,8v5[8:1]/4v1[8:1],,6pp3[4:2]/2pp7[4:2],,,,
{4}1>4[8:1],7,1<6[8:1],5,3-6[8:1]/7-2[8:1],3/7,1qq7[8:1]/5qq3[8:1],1/5,
{8}4hbx[8:1]/8hbx[8:1],,3/7,3/7,2/6,2/6,1/5,1/5,
{16}2,6,2,6,3,7,3,7,{8}4>1[8:1]/8,,8,7,
{8}1b/6b,,2/4,3,5/7,6,8pp4[8:2]*qq4[8:2],,8,,,
{8}2,1/7,6,5/4-8qq7[8:2]*-8pp1[8:2],,4,,,
{8}2/6,5/3,4,4/6,5,5<8[8:1]/3,,5/2>5[8:1],,2/8-3[8:1]*-5[8:1],,,,
{32}4,B4,C,E2/B1/E1/B8/E8/B7/E7,D2/A1/D1/A8/D8/A7/D7,,,,
{8},5/4,5v8[8:1]*v2[8:1],6/4,5<4[4:1]*>6[4:1],,5,,,
{8}2,1>4[8:1],8,7,6,5<8[8:1],4,3,
{8}2-6[8:1],,8qq8[8:1]/2pp2[8:1],,
{8}8/2,,8x/2x,8xpp2<1p5[16:5]/2xqq8>1q5[16:5],,2/8,,,,
{32}B5/B4,B6/B3,A6/A3,D6/D4,A5/A4,E5,C,E1,
{8}D1,2x/6x,5<8[8:1]/3>8[8:1],4,5v8p4[4:1]/3v8q4[4:1],,5/3,,,
{8}1,2/4,5,6,7/8,7/8,5,4,1/2,1/2,4,5,7qq4[4:1]/8pp3[4:1],,7/8,,,
{8}1-5[8:1],,1/6-1[8:1],,6/2-5[8:1],,
{8}8/2,8qq6[8:1]*pp2[8:1],,8-4-8-4-8-4-8[4:3],,
{8}8,,,B5/E5/A5,A3/E4/B3,,1p5qq5[8:7]*q5pp5[8:7],,1b,,,,,,,,,
{32}A5,B5,C,E3/B2/B1/B8/E8,D3/A2/D2/A1/D1/A8/D8,,,,
{16}7x/3x,,,,4,6,4,6,3,7,3,7,
{8}2-6[8:1]/8,1,8-4[8:1],1,3-1[8:1],2,6-8[8:1],5,
{8}3<6[8:1],2,1-5-8-6[8:3],1,4,4,3,2,
{8}1-4[8:1],8,5-1[8:1],6,3-7[8:1],2,8<5[8:1],1,
{8}4q8[8:1],3,2,1,8q4[8:1],7,6,5,
{8}3>1[8:1],2,5<7[8:1],6,4-2[8:1],3,6-8[8:1],7,
{8}1>4[8:1],2,5-7-4-8[8:3],5,3,3,2,1,
{8}2,1/3,4,5/3,2pp6[8:2],,8,8h[4:1],,
{16}4,4,7,7,2,2,{24}5,4,3,2,1,8,
4,5,6,7,8,1,
{8}2/6-4[8:1],7,6/3-8[8:1],2,3/5<8[8:1],4,5/1>4[8:1],2,
{8}1/8p4[8:1],7,8/3p7>2[8:3],3,4,5,6,7,
{8}8-5[8:1],1,8/3-1[8:1],4,3/6<8[8:1],5,6/2>4[8:1],3,
{8}2/1-6[8:1],1,1/4-8[8:1],4,4w8[8:1],,4,,
{8}6/3-5[8:1],2,3/6-8[8:1],7,6/4>2[8:1],5,4/1<6[8:1],8,
{8}1/2-6[8:1],3,2/7q3>8[8:3],7,5,5,4,3,
{8}2pp6[4:2],,,8,8h[4:2],,,,
{8}2,1/3,7,6/8,{16}1,8,2,7,{32}3,4,5,6,7,8,1,2,
{4}3pp8[4:2]/5qq8[4:2],,,,
{4}4pp5p1[4:2]/6qq5q1[4:2],,,,
{4}5qq5p8[4:2]/3pp3q8[4:2],,,,
{4}6qq4<5q1[4:2]/4pp6>5p1[4:2],,,,
{4}4-8[8:1]*w8[8:1],,
{32}A4,B4,C,E7/B7/B8/B1/E2,D7/A7/D8/A8/D1/A1/D2,,,,,,,,,,,,
{4}5w1[8:1]*v2[8:1]*v8[8:1],,
{32}A5,B5,C,E3/B2/B1/B8/E8,D3/A2/D2/A1/D1/A8/D8,,,,,,,,,,,,
{8}1/2,1/2,3/8,7/4,6/5,1/8,3/4,1/8,
{16}2,7,3,6,4,5,3,6,
{32}2,1,8,7,6,5,4,3,
{32}2,1,8,7,6,5,4,3,
{8}2/7-4[8:1],8,7/2-5[8:1],1,2/7,8,7pp4[4:1]/1qq4[4:1],8,1/7,,,
{8}6/5,4/5,3/4,1V35[8:1]*V75[8:1]/2,,{32}1/B1,B2/B8,B3/B7,B4/B6,B5,,,,
{8}3x/7x,1,2/8,4,5/3,6/4,7/5,7qq7q3b[8:3]/5,4,4,3,3,2x,,
{8}6-1[8:1]/3,5,6/3-8[8:1],4,3/7,6,5v8<5[4:1]/3v8>3[4:1],4,5/3,,,
{8}1,2/8,3/7,4/6,5,4/3,1/3,1/8,
{8}8-4[8:1]/6,,8<5[8:1]*>3[8:1],,8,,1pp4[8:3]/7qq4[8:3],1/7,1/7,,,,,
{8}1hb[8:1]/8bh[8:1],,3/6,4/5,2/7,4/5,1/8,3/6,
{32}1/8,2,3,4,5,6,7,8,1,2,3,4,5,6,7,8,
{32}1,2,3,4,5,6,7,8,1,2,3,4,5,6,7,8,
{32}1,2,3,4,5,6,7,8,1,2,3,4,5,6,7,8,
{32}1,2,3,4,5,6,7,8,1pp5[8:3]*qq5[8:3],2,3,4,5,6,7,8,
{8}1,,,,
{8}5xw1[8:1],5,{32}A5,B5,C,E3/B2/B1/B8/E8,D3/A2/D2/A1/D1/A8/D8,,,,
{8}6<1[8:1],6,6/2>5[8:1],2,2/8-3[8:1],8,8/4w8[8:1],4,4,,
{8}2/6,1-5-1-5-1-5-1-5-1-5-1-5-1b[8:11]/6,,7,,7h[8:9],,,,,,,,,
{8},,6/3,4/5,{16}4,5,3,6,2,7,1,8,
{4}2bh[4:1]/7bh[4:1],,
{4}1,1h[4:2],E1/E2,E1/E2,
{4}1,1h[4:2],B2/B8,B2/B8,
{4}1,1h[4:2],B3/B7,B3/B7,
{4}1,1h[4:2],B4/B6/C,B4/B6/C,
{4}1,1h[4:2],E5/E6/B5/C,E5/E6/B5/C,
{4}1,1h[4:1],5<1[4:1],1>5[4:1],5<1[4:1],1>5[4:1],
{4}5<5[4:2],C,5<5[4:2],C,5,1,
{4}4/6,4pp5-1[8:3]/6qq5-1[8:3],4/6,Cf,
{4}4/6,4pp5>4q1[8:3]/6qq5<6p1[8:3],4/6,Cf,
{4}5,5pp4q1[8:3]*qq6p1[8:3],5,Cf,
{4}4/5,4pp4-1<8[8:3]/5qq5-8[8:3],4/5,Cf,
{4}4/5,4pp5p1[8:3]/5qq4q8>1[8:3],4/5,Cf,
{4}4/5,4-8[8:1]/5-1[8:1],4/5/Cf,
{8}2/7,2/7,6/3,4/5,1/3,6pp3[8:2]/8qq3[8:2],
E
